Трансформеры 3: Темная сторона Луны / Transformers: Dark of the Moon (Майкл Бэй / Michael Bay) [2011, США, Фантастика, боевик, приключения,HDRip] Дублированный [лицензия]

Ответить на тему
 
Автор Сообщение

Священник ®

Пол: Мужской

Стаж: 9 лет 6 месяцев

Сообщений: 3249

Откуда: Из светлого прошлого

Создавать темы 06-Окт-2011 09:17

[Цитировать]


«Последний шанс цивилизации»
- Страна: США
Жанр: Фантастика, боевик, приключения
Год выпуска: 2011
Продолжительность: 02:34:21
Перевод: Дублированный [лицензия]-Режиссер: Майкл Бэй / Michael Bay-В ролях: Шайа ЛаБаф, Джош Дюамель, Джон Туртурро, Тайриз Гибсон, Роузи Хантингтон-Уайтли, Патрик Демпси, Кевин Данн, Джули Уайт, Джон Малкович, Питер Каллен-Описание: Для наших героев наступили печальные будни: Сэм потерял Микаэлу, правительство выпускает законодательный акт о выселении Автоботов с Земли, а пока Мегатрон скрывается после позорного поражения Фоллена, десептикон Шокуэйв, правитель Кибертрона, готовится нанести визит нашей планете с совсем недобрыми намерениями. Действие заключительной части трилогии на этот раз охватит не только Землю, но и Луну, темная сторона которой хранит не менее темные тайны.-Доп. информация: Бюджет: $195 000 000
Сборы в США: $351 501 539
Сборы в мире: + $766 349 065 = $1 117 850 604
Сборы в России: $44 991 020
Зрители: Китай 26.1 млн, Япония 7.72 млн, Россия 5.13 млн
Премьера (мир): 25 июня 2011, ...
Премьера (РФ): 29 июня 2011, «Централ Партнершип» 3D
Время: 154 мин.
Рейтинг КиноПоиска: 7.220 (24 384)
Рейтинг IMDB: 6.60 (70 783)-Video: Xvid 720x304 23.98fps [Stream 00]
Audio: Dolby AC3 48000Hz 6ch 384kbps [Stream 01]-
Скриншоты


MediaInfo
General
Format : AVI
Format/Info : Audio Video Interleave
File size : 1.37 GiB
Duration : 2h 34mn
Overall bit rate : 1 270 Kbps
Writing application : VirtualDubMod 1.5.10.3 | www.virtualdub-fr.org || (build 2550/release)
Writing library : VirtualDubMod build 2550/release
Video
ID : 0
Format : MPEG-4 Visual
Format profile : Advanced Simple@L5
Format settings, BVOP : 2
Format settings, QPel : No
Format settings, GMC : No warppoints
Format settings, Matrix : Custom
Codec ID : XVID
Codec ID/Hint : XviD
Duration : 2h 34mn
Bit rate : 876 Kbps
Width : 720 pixels
Height : 304 pixels
Display aspect ratio : 2.35:1
Frame rate : 23.976 fps
Color space : YUV
Chroma subsampling : 4:2:0
Bit depth : 8 bits
Scan type : Progressive
Compression mode : Lossy
Bits/(Pixel*Frame) : 0.167
Stream size : 968 MiB (69%)
Writing library : XviD 58
Audio
ID : 1
Format : AC-3
Format/Info : Audio Coding 3
Mode extension : CM (complete main)
Codec ID : 2000
Duration : 2h 34mn
Bit rate mode : Constant
Bit rate : 384 Kbps
Channel(s) : 6 channels
Channel positions : Front: L C R, Side: L R, LFE
Sampling rate : 48.0 KHz
Bit depth : 16 bits
Compression mode : Lossy
Delay relative to video : 28ms
Stream size : 424 MiB (30%)
Alignment : Split accross interleaves
Interleave, duration : 42 ms (1.00 video frame)
Interleave, preload duration : 500 ms
Источник: ttl.tj


Последний раз редактировалось: Священник (2011-10-06 09:30), всего редактировалось 2 раз(а)
[Профиль] [ЛС]

DJ-snake

Пол: Мужской

Стаж: 9 лет

Сообщений: 7879

Откуда: Душанбе

Создавать темы 06-Окт-2011 09:28 (спустя 11 минут)

[Цитировать]

Трансформеры 3: Темная сторона Луны / Transformers: Dark of the Moon (Майкл Бэй ) [2011, США, Фантастика, боевик, приключения, HDRip]
[Профиль] [ЛС]

Создавать темы 06-Окт-2011 10:03 (спустя 35 минут)

Топик был перенесен из форума Фантастика в форум Архив

DJ-snake
 
Показать сообщения:    
Ответить на тему

Текущее время: 17-Авг 01:24

Часовой пояс: UTC + 3



Вы не можете начинать темы
Вы не можете отвечать на сообщения
Вы не можете редактировать свои сообщения
Вы не можете удалять свои сообщения
Вы не можете голосовать в опросах
Вы не можете прикреплять файлы к сообщениям
Вы не можете скачивать файлы