Похороните меня заживо / Get Low (Аарон Шнайдер / Aaron Schneider) [2009, США, Германия, Польша, драма, комедия, детектив, BDRip] DUB

Ответить на тему
 
Автор Сообщение

office_ ®

Пол: Мужской

Стаж: 9 лет 8 месяцев

Сообщений: 3495

Откуда: Душанбе

Создавать темы 06-Окт-2011 06:33

[Цитировать]

Похороните меня заживо / Get Low (Аарон Шнайдер / Aaron Schneider) [2009, США, Германия, Польша, драма, комедия, детектив, BDRip] DUB
Страна: США, Германия, Польша
Жанр: : драма, комедия, детектив
Год выпуска: : 2009
Продолжительность: : 01:43:25
Перевод: : Профессиональный (дублированный)
Cубтитры: : нет
Режиссер:: Аарон Шнайдер / Aaron Schneider
В ролях:
Роберт Дювалл, Сисси Спейсек, Билл Мюррэй, Лукас Блэк, Джералд МакРэйни, Билл Коббс, Скотт Купер, Лори Бет Едгеман, Линдс Эдвардс, Андреа Пауэлл
Описание:
В 1938 году 74-летний Феликс Бризил решил организовать собственные похороны — с намерением, будучи еще живым, принять в них участие и насладиться церемониалом по мере возможности. О том, были ли у экстравагантного старика иные причины опасаться за свое здоровье, кроме возраста, не сообщается. Зато известно, что с момента похорон он прожил еще пять лет и скончался в 1943 году в возрасте 79 лет.
Первые же проводы Бризила стали, вероятно, одним из самых громких событий за всю историю округа Роан, штат Теннесси. О намерениях «покойника» прознала пресса, после чего на сами похороны, состоявшиеся 26 июня, съехалось по разным оценкам от восьми до двенадцати тысяч человек, а журнал Life даже напечатал фоторепортаж о мероприятии.

Доп. информация:
IMDB 7.2/10 (5,274 votes)
Качество видео: : BDRip
Формат видео: : AVI
Видео: : 720x304 (2.37:1), 23.976 fps, XviD build 50 ~1622 kbps avg, 0.31 bit/pixel
Аудио: : 48 kHz, AC3 Dolby Digital, 3/2 (L,C,R,l,r) + LFE ch, ~384 kbps
Cкины
MediaInfo
General
Complete name : L:\Get.Low.chopper887.avi
Format : AVI
Format/Info : Audio Video Interleave
File size : 1.46 GiB
Duration : 1h 43mn
Overall bit rate : 2 016 Kbps
Movie name : Get.Low.chopper887
Director : chopper887
Writing application : VirtualDubMod 1.5.10.2 (build 2540/release)
Video
ID : 0
Format : MPEG-4 Visual
Format profile : AdvancedSimple@L5
Format settings, BVOP : Yes
Format settings, QPel : No
Format settings, GMC : No warppoints
Format settings, Matrix : Custom
Codec ID : XVID
Codec ID/Hint : XviD
Duration : 1h 43mn
Bit rate : 1 623 Kbps
Width : 720 pixels
Height : 304 pixels
Display aspect ratio : 2.35:1
Frame rate : 23.976 fps
Resolution : 24 bits
Colorimetry : 4:2:0
Scan type : Progressive
Bits/(Pixel*Frame) : 0.309
Stream size : 1.17 GiB (80%)
Writing library : XviD 1.2.1 (UTC 2008-12-04)
Audio
ID : 1
Format : AC-3
Format/Info : Audio Coding 3
Codec ID : 2000
Duration : 1h 43mn
Bit rate mode : Constant
Bit rate : 384 Kbps
Channel(s) : 6 channels
Channel positions : Front: L C R, Surround: L R, LFE
Sampling rate : 48.0 KHz
Stream size : 284 MiB (19%)
Alignment : Split accross interleaves
Interleave, duration : 42 ms (1.00 video frame)
Interleave, preload duration : 500 ms
AviInfo
File: Get.Low.chopper887.avi
Title: Get.Low.chopper887
Author: chopper887
Filesize: 1491.30 Mb ( 1 563 746 304 bytes )
Play length: 01:43:25.199 (148776 frames)
Subtitles: Not Present
Video: 720x304 (2.37:1), 23.976 fps, XviD build 50 ~1622 kbps avg, 0.31 bit/pixel
Audio: 48 kHz, AC3 Dolby Digital, 3/2 (L,C,R,l,r) + LFE ch, ~384 kbps


Последний раз редактировалось: office_ (2011-10-06 09:06), всего редактировалось 1 раз
[Профиль] [ЛС]

DJ-snake

Пол: Мужской

Стаж: 9 лет

Сообщений: 7879

Откуда: Душанбе

Создавать темы 06-Окт-2011 07:33 (спустя 59 минут)

[Цитировать]

Правила о заголовках тем в зарубежных фильмах
[Профиль] [ЛС]

office_ ®

Пол: Мужской

Стаж: 9 лет 8 месяцев

Сообщений: 3495

Откуда: Душанбе

Создавать темы 06-Окт-2011 10:33 (спустя 3 часа)

[Цитировать]

DJ-snake
ок.
[Профиль] [ЛС]

Создавать темы 28-Окт-2012 06:37 (спустя 1 год)

Топик был перенесен из форума Драмы в форум Архив

BABILON-T
 
Показать сообщения:    
Ответить на тему

Текущее время: 17-Авг 01:23

Часовой пояс: UTC + 3



Вы не можете начинать темы
Вы не можете отвечать на сообщения
Вы не можете редактировать свои сообщения
Вы не можете удалять свои сообщения
Вы не можете голосовать в опросах
Вы не можете прикреплять файлы к сообщениям
Вы не можете скачивать файлы