Доктор Хаус / House M.D. / Сезон: 8 / Серии: 1 (22) (Деран Сарафян, Дэвид Платт, Фред Гербер) [2011, медицина, комедия, драма, детектив, HDTVRip] Rus Sub

Ответить на тему
 
Автор Сообщение

Сухроб. ®

Пол: Мужской

Стаж: 8 лет 3 месяца

Сообщений: 13964

Создавать темы 06-Окт-2011 05:00

[Цитировать]

Доктор Хаус / House M.D. Год выпуска: 2011
Страна: США
Жанр: медицина, комедия, драма, детектив
Продолжительность: ~ 42 минуты
Перевод: Отсутствует
Субтитры: Русские - Notabenoid--Режиссёр: Деран Сарафян, Дэвид Платт, Фред Гербер
В ролях: Хью Лори, Роберт Шон Леонард, Джесси Спенсер, Омар Эппс, Дженнифер Моррисони др.-Описание: Доктор Грегори Хаус — главный герой, вокруг которого и разворачиваются главные события. Предстает он перед пациентами, коллегами в основном мерзким типом, который всем видом пытается показать, что он не изменится. Он плюёт на правила и запреты, он груб, циничен, хитёр и играет жизнями пациентов, он будет всё время стоять на своём. Но отрицательные качества затмеваются тем, что он превосходный врач. Хаус будто военный лётчик, который за сбитый самолёт приклеивает звезду на самолёт, только в данном случае вместо сбитого самолёта — вылеченный пациент. Он осознаёт это, и поэтому ведёт себя так, как ведёт. Хаус не носит медицинский халат, принимает викодин у всех на глазах, ничего не стесняясь, и он будет таким, и никто не в силах его отучить от всех его «штучек».
Иногда бывают моменты, когда Хаус на время становится серьёзным и задумчивым, но позже всё возвращается на свои места, он опять становится прежним.-Качество: HDTVRip
Формат: AVI
Видео кодек: XviD
Аудио кодек: MP3
Видео: 624x352 (16:9), 23.976 fps, ~1000 kbps, ~0.18 bit/pixel
Аудио: 48 kHz, 2 ch, ~160 kbps
-
Список серий
1.Twenty Vicodin
MediaInfo
Общее
Полное имя : F:\House.S08.HDTV.XviD.Rus.Eng.Sub\House.S08E01.HDTV.XviD.avi
Формат : AVI
Формат/Информация : Audio Video Interleave
Размер файла : 349 Мбайт
Продолжительность : 43 м.
Общий поток : 1132 Кбит/сек
Программа кодирования : transcode-1.0.6
Видео
Идентификатор : 0
Формат : MPEG-4 Visual
Профиль формата : Advanced Simple@L5
Параметр BVOP формата : 2
Параметр QPel формата : Нет
Параметр GMC формата : Без точки перехода
Параметр матрицы формата : Default (H.263)
Идентификатор кодека : XVID
Идентификатор кодека/Подсказка : XviD
Продолжительность : 43 м.
Битрейт : 966 Кбит/сек
Ширина : 624 пикс.
Высота : 352 пикс.
Соотношение сторон : 16:9
Частота кадров : 23,976 кадр/сек
Цветовое пространство : YUV
Подвыборка цветности : 4:2:0
Битовая глубина : 8 бит
Тип развёртки : Прогрессивная
Метод сжатия : С потерями
Бит/(Пиксели*Кадры) : 0.183
Размер потока : 298 Мбайт (85%)
Библиотека кодирования : XviD 1.2.1 (UTC 2008-12-04)
Аудио
Идентификатор : 1
Формат : MPEG Audio
Версия формата : Version 1
Профиль формата : Layer 3
Режим : Joint stereo
Расширение режима : MS Stereo
Идентификатор кодека : 55
Идентификатор кодека/Подсказка : MP3
Продолжительность : 43 м.
Вид битрейта : Переменный
Битрейт : 160 Кбит/сек
Каналы : 2 канала
Частота : 48,0 КГц
Метод сжатия : С потерями
Размер потока : 47,2 Мбайт (14%)
Выравнивание : Соединение по промежуткам
Продолжительность промежутка : 24 мс. (0,58 видеокадр)
Библиотека кодирования : LAME3.98r
Настройки программы : -m j -V 4 -q 3 -lowpass 17.5 --abr 160
-
Внимание! Раздача ведется путём добавления новых серий.
Внимание! Раздача ведётся путём добавления новых серий; при каждом добавлении создётся новый торрент. Чтобы начать докачку новой серии, пользователям необходимо сделать следующее:1) остановить скачивание,
2) удалить старый торрент у себя из клиента (старые серии удалять не надо),
3) скачать новый торрент и запустить его у себя в клиенте вместо старого, при этом указать клиенту путь в старую папку куда и должно происходить скачивание новых серий.
Ваш клиент при этом должен произвести хеширование (проверку) старой папки (если не производит сам - помогите ему сделать это), и будет докачивать только те серии которых у вас ещё нет. Старые серии при этом не удаляются, а продолжают раздаваться!
Eсли вы уже удалили старые серии, то предотвратить повторную закачку старых серий можно, отжав галочку в соответсвующих местах при запуске нового торрента.
Скрины




Последний раз редактировалось: Сухроб. (2011-10-06 16:37), всего редактировалось 1 раз
[Профиль] [ЛС]

Сухроб. ®

Пол: Мужской

Стаж: 8 лет 3 месяца

Сообщений: 13964

Создавать темы 06-Окт-2011 05:00 (спустя 11 секунд)

[Цитировать]

Готова!
[Профиль] [ЛС]

ancheloti

Пол: Мужской

Стаж: 7 лет 7 месяцев

Сообщений: 2161

Создавать темы 06-Окт-2011 16:54 (спустя 11 часов)

[Цитировать]

Сухроб.
eto chto za ava
[Профиль] [ЛС]

Сухроб. ®

Пол: Мужской

Стаж: 8 лет 3 месяца

Сообщений: 13964

Создавать темы 06-Окт-2011 16:58 (спустя 4 минуты)

[Цитировать]

ancheloti
Красивая ава =)
[Профиль] [ЛС]

adm1ra[L]wOw~

Пол: Мужской

Стаж: 7 лет 4 месяца

Сообщений: 4983

Создавать темы 06-Окт-2011 17:19 (спустя 20 минут)

[Цитировать]

Сухроб.
Герой детства)
[Профиль] [ЛС]

Сухроб. ®

Пол: Мужской

Стаж: 8 лет 3 месяца

Сообщений: 13964

Создавать темы 06-Окт-2011 17:21 (спустя 2 минуты)

[Цитировать]

adm1ra[L]wOw~
Ага=)
[Профиль] [ЛС]

Создавать темы 24-Ноя-2011 16:52 (спустя 1 месяц 17 дней)

Топик был перенесен из форума Доктор Хаус / House M.D. в форум Архив

Mithas204
 
Показать сообщения:    
Ответить на тему

Текущее время: 17-Авг 01:24

Часовой пояс: UTC + 3



Вы не можете начинать темы
Вы не можете отвечать на сообщения
Вы не можете редактировать свои сообщения
Вы не можете удалять свои сообщения
Вы не можете голосовать в опросах
Вы не можете прикреплять файлы к сообщениям
Вы не можете скачивать файлы