Сердце Дракона / DragonHeart (Роб Коэн) [1996 г., фэнтези, боевик, драма, приключения, DVDRip]

Ответить на тему
 
Автор Сообщение

alasto89 ®

Пол: Мужской

Стаж: 7 лет 7 месяцев

Сообщений: 789

Создавать темы 04-Окт-2011 09:45

[Цитировать]

---Сердце Дракона / DragonHeart ---Год выпуска: 1996--Страна: США--Жанр: фэнтези, боевик, драма, приключения--Продолжительность: 01:42:52--Перевод: Профессиональный (многоголосый, закадровый)--Режиссер: Роб Коэн--В ролях: Деннис Куэйд, Дэвид Тьюлис, Пит Постлетуэйт, Дина Мейер, Джейсон Айзекс, Брайан Томпсон, Ли Оакес, Вульф Кристиан, Терри О’Нил, Ева Веймелкова--Описание: Чеpное сеpдце бьется в гpуди молодого коpоля Айтона, сеющего вокpуг себя беззаконие и зло. Наставник коpоля, рыцаpь Стаpого Завета Боyин, отпpавляется в пyть, чтобы найти и убить дpакона, котоpого он считает повинным в жестокости Айтона...--Качество: DVDRip--Формат: AVI--Видео: Xvid 672x288 23.98fps--Аудио: Dolby AC3 48000Hz stereo 192kbps--КиноПоиск: 7.752 7 463--IMDb: 6.20 (31 172)--
МИ:

General
Complete name : DragonHeart.DVDRip.1996.avi
Format : AVI
Format/Info : Audio Video Interleave
File size : 1.37 GiB
Duration : 1h 42mn
Overall bit rate : 1 903 Kbps
Writing application : VirtualDubMod 1.5.4.1 (build 2178/release)
Writing library : VirtualDubMod build 2178/release
Video
ID : 0
Format : MPEG-4 Visual
Format profile : AdvancedSimple@L5
Format settings, BVOP : Yes
Format settings, QPel : No
Format settings, GMC : No warppoints
Format settings, Matrix : Custom
Codec ID : XVID
Codec ID/Hint : XviD
Duration : 1h 42mn
Bit rate : 1 705 Kbps
Width : 672 pixels
Height : 288 pixels
Display aspect ratio : 2.35:1
Frame rate : 23.976 fps
Resolution : 24 bits
Colorimetry : 4:2:0
Scan type : Progressive
Bits/(Pixel*Frame) : 0.367
Stream size : 1.22 GiB (90%)
Writing library : XviD 1.2.0SMP (UTC 2006-01-08)
Audio
ID : 1
Format : AC-3
Format/Info : Audio Coding 3
Format profile : Dolby Digital
Codec ID : 2000
Duration : 1h 42mn
Bit rate mode : Constant
Bit rate : 192 Kbps
Channel(s) : 2 channels
Channel positions : L R
Sampling rate : 48.0 KHz
Stream size : 141 MiB (10%)
Alignment : Split accross interleaves
Interleave, duration : 96 ms (2.30 video frames)
Interleave, preload duration : 96 ms
Скриншоты:





--- ---
[Профиль] [ЛС]

Создавать темы 12-Апр-2013 21:14 (спустя 1 год 6 месяцев)

Топик был перенесен из форума Фантастика в форум Архив

gadeyka
 
Показать сообщения:    
Ответить на тему

Текущее время: 19-Авг 05:38

Часовой пояс: UTC + 3



Вы не можете начинать темы
Вы не можете отвечать на сообщения
Вы не можете редактировать свои сообщения
Вы не можете удалять свои сообщения
Вы не можете голосовать в опросах
Вы не можете прикреплять файлы к сообщениям
Вы не можете скачивать файлы