Зеленый Фонарь / Green Lantern (Мартин Кэмпбелл / Martin Campbell) [2011 г., фантастика, боевик, триллер, криминал, HDTV]

Ответить на тему
 
Автор Сообщение

nokia6230 ®

Пол: Мужской

Стаж: 7 лет 9 месяцев

Сообщений: 387

Создавать темы 03-Окт-2011 22:30

[Цитировать]

Зеленый Фонарь / Green Lantern
EXTENDED (Расширенная версия)
Информация о фильме
Название: Зеленый Фонарь
Оригинальное название: Green Lantern
Жанр: фантастика, боевик, триллер, криминал
Студия: Warner Bros. Pictures, De Line Pictures, DC Entertainment
Год выпуска: 2011
Страна: США
Продолжительность: 02:03:39
Перевод: Одноголосый закадровый - Вячеслав Замез - zamez
Cубтитры: Rus, Eng
Оригинальная аудиодорожка: английский
Режиссер: Мартин Кэмпбелл / Martin Campbell
В ролях: Райан Рейнольдс, Блейк Лайвли, Питер Сарсгаард, Марк Стронг, Темуэра Моррисон, Дженна Крэйг, Джон Тенни, Майк Дойл, Гэтлин Гриффит, Николас Джендл
Описание: Во Вселенной, столь же бесконечной, сколь и загадочной, многие века существовал отряд воинов, обладающих огромной силой. Защитники мира и справедливости, их называют Корпус Зеленых Фонарей. Братство воинов, поклявшихся защищать межгалактический закон, где каждый из них носит кольцо, дарующее ему сверхспособности. Но когда новый враг по имени Параллакс угрожает нарушить равновесие во Вселенной, их судьба и судьба Земли оказывается в руках новобранца, первого человека в истории отряда — Хэла Джордана.
Хэл — дерзкий и талантливый летчик-испытатель, но Зеленые Фонари не испытывают доверия и уважения к человечеству, ведь людям до этого ни разу не удалось обуздать безграничную силу кольца. Но Хэл — как недостающий кусочек мозаики, и вместе с решимостью и силой воли он обладает тем, чего не было ни у одного звездного воителя, — человечностью. Если при поддержке напарника и подруги детства Кэрол Феррис (Блейк Лайвли) Хэл сможет быстро научиться управлять мощью кольца и найдет мужество преодолеть свои страхи, он сможет не только доказать, что он является ключом к победе над Параллаксом… но и станет величайшим Зеленым Фонарем из всех.
IMDB Rating: 6.2/10 (25,343 голосов)
Kinopoisk Rating: 6.482 (1,647 голосов)
Сэмпл: http://multi-up.com/568635
Источник: http://rutracker.org/forum/viewtopic.php?t=3756672
Тип релиза: HDRip 720p (Исходник Green Lantern 2011 EXTENDED 1080p Bluray x264-MaxHD)
Контейнер: MKV
Видео: MPEG-4 AVC, x264, 1280x536(2.40:1), 23.976 fps, ~4811kbps avg, 0.292 bit/pixel
Аудио: Rus 48 kHz, AC3 Dolby Digital, 6 ch, 3/2 (L,C,R,l,r) + LFE ch, 448 kbps, время 02:03:39
Аудио 2: Eng 48 kHz, DTS, 6 ch, Front: L C R, Side: L R, LFE, ~1509 kbps, 24 bits
MediaInfo

C:\Documents and Settings\All Users\Application Data\Kaspersky Lab\SandboxShared\Green.Lantern.EXTENDED.2011.HDRip.720p.HDRip.[by_Doktor_S.].mkv
General
Unique ID : 216731696550017059480060667378237186056 (0xA30D01A549DC06AD842C44AB04A82008)
Complete name : C:\Documents and Settings\All Users\Application Data\Kaspersky Lab\SandboxShared\Green.Lantern.EXTENDED.2011.HDRip.720p.HDRip.[by_Doktor_S.].mkv
Format : Matroska
File size : 5.85 GiB
Duration : 2h 3mn
Overall bit rate : 6 770 Kbps
Encoded date : UTC 2011-10-03 17:35:48
Writing application : mkvmerge v4.8.0 ('I Got The...') сборка от May 24 2011 03:12:58
Writing library : libebml v1.2.0 + libmatroska v1.1.0
Video #1
ID : 1
Format : AVC
Format/Info : Advanced Video Codec
Format profile : High@L4.1
Format settings, CABAC : Yes
Format settings, ReFrames : 5 frames
Codec ID : V_MPEG4/ISO/AVC
Duration : 2h 3mn
Bit rate : 4 811 Kbps
Width : 1 280 pixels
Height : 536 pixels
Display aspect ratio : 2.40:1
Frame rate : 23.976 fps
Color space : YUV
Chroma subsampling : 4:2:0
Bit depth : 8 bits
Scan type : Progressive
Bits/(Pixel*Frame) : 0.292
Stream size : 4.04 GiB (69%)
Writing library : x264 core 116 r2057 0ba8a9c
Encoding settings : cabac=1 / ref=5 / deblock=1:0:0 / analyse=0x3:0x113 / me=umh / subme=7 / psy=1 / psy_rd=1.00:0.15 / mixed_ref=1 / me_range=16 / chroma_me=1 / trellis=1 / 8x8dct=1 / cqm=0 / deadzone=21,11 / fast_pskip=0 / chroma_qp_offset=-3 / threads=12 / sliced_threads=0 / nr=0 / decimate=1 / interlaced=0 / bluray_compat=0 / constrained_intra=0 / bframes=3 / b_pyramid=2 / b_adapt=1 / b_bias=0 / direct=1 / weightb=1 / open_gop=0 / weightp=2 / keyint=250 / keyint_min=23 / scenecut=40 / intra_refresh=0 / rc_lookahead=40 / rc=2pass / mbtree=1 / bitrate=4811 / ratetol=1.0 / qcomp=0.60 / qpmin=0 / qpmax=69 / qpstep=4 / cplxblur=20.0 / qblur=0.5 / ip_ratio=1.40 / aq=1:1.00
Language : English
Audio #2
ID : 2
Format : DTS
Format/Info : Digital Theater Systems
Codec ID : A_DTS
Duration : 2h 3mn
Bit rate mode : Constant
Bit rate : 1 510 Kbps
Channel(s) : 6 channels
Channel positions : Front: L C R, Side: L R, LFE
Sampling rate : 48.0 KHz
Bit depth : 24 bits
Compression mode : Lossy
Delay relative to video : 22ms
Stream size : 1.30 GiB (22%)
Title : English DTS 1509kbps
Language : English
Audio #4
ID : 4
Format : AC-3
Format/Info : Audio Coding 3
Mode extension : CM (complete main)
Codec ID : A_AC3
Duration : 2h 3mn
Bit rate mode : Constant
Bit rate : 448 Kbps
Channel(s) : 6 channels
Channel positions : Front: L C R, Side: L R, LFE
Sampling rate : 48.0 KHz
Bit depth : 16 bits
Compression mode : Lossy
Stream size : 396 MiB (7%)
Title : Одноголосый закадровый перевод [Extended Cut / Расширенная версия] VO (zamez)
Language : Russian
Text #3
ID : 3
Format : UTF-8
Codec ID : S_TEXT/UTF8
Codec ID/Info : UTF-8 Plain Text
Title : English
Language : English
Text #5
ID : 5
Format : UTF-8
Codec ID : S_TEXT/UTF8
Codec ID/Info : UTF-8 Plain Text
Скрины





Последний раз редактировалось: nokia6230 (2011-10-03 22:38), всего редактировалось 2 раз(а)
[Профиль] [ЛС]

nokia6230 ®

Пол: Мужской

Стаж: 7 лет 9 месяцев

Сообщений: 387

Создавать темы 03-Окт-2011 22:31 (спустя 43 секунды)

[Цитировать]

торрент добавлю по позже качаю размер 5,84гиг
[Профиль] [ЛС]

mkoma

Пол: Мужской

Стаж: 9 лет 9 месяцев

Сообщений: 1195

Откуда: спасибо eastera моему провайдеру

Создавать темы 05-Окт-2011 17:19 (спустя 1 день 18 часов)

[Цитировать]

когда же выложеш
[Профиль] [ЛС]

Создавать темы 11-Окт-2011 07:13 (спустя 5 дней)

Топик был перенесен из форума HDTV в форум Архив

Zloy
 
Показать сообщения:    
Ответить на тему

Текущее время: 17-Дек 09:38

Часовой пояс: UTC + 3



Вы не можете начинать темы
Вы не можете отвечать на сообщения
Вы не можете редактировать свои сообщения
Вы не можете удалять свои сообщения
Вы не можете голосовать в опросах
Вы не можете прикреплять файлы к сообщениям
Вы не можете скачивать файлы