Идеальный хозяин / The Perfect Host (Николас Томнэй / Nicholas Tomnay) [2010 г., Триллер, драма, криминал, HDRip]

Ответить на тему
 
Автор Сообщение

nokia6230 ®

Пол: Мужской

Стаж: 7 лет 5 месяцев

Сообщений: 387

Создавать темы 03-Окт-2011 21:13

[Цитировать]

Идеальный хозяин / The Perfect Host
США
Триллер, драма, криминал
2010
01:32:42

Любительский (одноголосый закадровый)zamez по субтитрам Max_Flexo Cубтитры отсутствуют
Николас Томнэй / Nicholas Tomnay

Дэвид Хайд Пирс, Клейн Кроуфорд, Натаниель Паркер, Хелен Редди, Меган Перри, Джозеф Уилл, Тайриз Аллен, Брук Андерсон, Ник Барнс, Трэйси Бриттон
Опасный рецидивист втирается в доверие к респектабельному господину и напрашивается к нему в гости, но в тихом омуте черти водятся. Хозяин ожидает гостей на званный ужин и скоро начнётся самый безумный ад, который придется пережить уголовнику. Остросюжетный триллер являет собой превосходный сценарий и актерскую игру, а также пример того, что и без огромного бюджета можно снимать великолепное кино.


HDRip/BDRip 720p
AVI
688x384 (1.79:1), 23.976 fps, XviD build 64 ~1781 kbps avg, 0.28 bit/pixel
48 kHz, AC3 Dolby Digital, 3/2 (L,C,R,l,r) + LFE ch, ~448 kbps

6.9/10 (2,358 голосов)

MediaInfo

Общее
Полное имя : F:\Idealnyj hozjain.HDRip_2011.avi
Формат : AVI
Формат/Информация : Audio Video Interleave
Размер файла : 1,45 Гбайт
Продолжительность : 1 ч. 32 м.
Общий поток : 2237 Кбит/сек
Видео
Идентификатор : 0
Формат : MPEG-4 Visual
Профиль формата : Advanced Simple@L5
Параметр BVOP формата : 2
Параметр QPel формата : Нет
Параметр GMC формата : Без точки перехода
Параметр матрицы формата : Выборочная
Идентификатор кодека : XVID
Идентификатор кодека/Подсказка : XviD
Продолжительность : 1 ч. 32 м.
Битрейт : 1782 Кбит/сек
Ширина : 688 пикселей
Высота : 384 пикселя
Соотношение сторон : 16:9
Частота кадров : 23,976 кадра/сек
Цветовое пространство : YUV
Субдискретизация насыщенности : 4:2:0
Битовая глубина : 8 бит
Тип развёртки : Прогрессивная
Метод сжатия : С потерями
Бит/(Пиксели*Кадры) : 0.281
Размер потока : 1,15 Гбайт (80%)
Библиотека кодирования : XviD 64
Аудио
Идентификатор : 1
Формат : AC-3
Формат/Информация : Audio Coding 3
Расширение режима : CM (complete main)
Идентификатор кодека : 2000
Продолжительность : 1 ч. 32 м.
Вид битрейта : Постоянный
Битрейт : 448 Кбит/сек
Каналы : 6 каналов
Расположение каналов : Front: L C R, Side: L R, LFE
Частота : 48,0 КГц
Битовая глубина : 16 бит
Метод сжатия : С потерями
Размер потока : 297 Мбайт (20%)
Выравнивание : Соединение по промежуткам
Продолжительность промежутка : 64 мс. (1,53 видеокадра)
Время предзагрузки промежутка : 192 мс.
Заголовок : Idealnyj hozjain.HDRip.2011.rus

Жми








[Профиль] [ЛС]

nokia6230 ®

Пол: Мужской

Стаж: 7 лет 5 месяцев

Сообщений: 387

Создавать темы 03-Окт-2011 21:53 (спустя 39 минут)

[Цитировать]

готово
[Профиль] [ЛС]

Создавать темы 08-Фев-2012 19:19 (спустя 4 месяца 4 дня)

Топик был перенесен из форума Триллеры в форум Архив

Mithas204
 
Показать сообщения:    
Ответить на тему

Текущее время: 18-Авг 14:08

Часовой пояс: UTC + 3



Вы не можете начинать темы
Вы не можете отвечать на сообщения
Вы не можете редактировать свои сообщения
Вы не можете удалять свои сообщения
Вы не можете голосовать в опросах
Вы не можете прикреплять файлы к сообщениям
Вы не можете скачивать файлы