Настоящая легенда / True Legend / Su Qi-Er (Ву-Пин Юэнь / Woo-ping Yuen) [2010, Китай, боевик, драма, история, DVDRip] DUB

Тема закрыта
 
Автор Сообщение

Planinng ®

Пол: Мужской

Стаж: 7 лет 8 месяцев

Сообщений: 1582

Создавать темы 18-Окт-2010 09:03

[Цитировать]

Настоящая легенда / True Legend / Su Qi-Er
Страна: Китай
Жанр: боевик, драма, история
Год выпуска: 2010
Продолжительность: 01:50:06
Перевод: Профессиональный (дублированный)
Cубтитры: нет
Режиссер: Ву-Пин Юэнь / Woo-ping Yuen
В ролях: Ман Чук Чиу, Чжоу Сюнь, Мишель Йео, Фэн Сяоган, Энди Он, Цзянь Луи Ксиа, Джа Хуи Лью, Ка-Ян Леунг, Уилл Лью, Джей Чоу
Описание: Со, генерал в армии принца, устал от войн и покидает пост на самом взлете, оставив вместо себя своего сводного брата Юаня. Вместе с женой, родной сестрой Юаня, Со перебирается в провинцию, где вскоре у них рождается сын. Но Юань на самом деле уже давно и люто ненавидит семью Со, отец которого когда-то убил его собственного отца, и все эти годы изучал смертоносную технику кулака пяти ядов. И свой гнев он обрушит на Со, когда тот будет ожидать этого меньше всего.
Сэмпл: http://onemove.ru/24052/
Качество видео: DVDRip
Формат видео: AVI
Видео: 704x288 (2.44:1), 25 fps, XviD build 50 ~1506 kbps avg, 0.30 bit/pixel
Аудио: 48 kHz, AC3 Dolby Digital, 3/2 (L,C,R,l,r) + LFE ch, ~384.00 kbps avg
MediaInfo
D:\ФИЛЬМЫ\Настоящая легенда_[rutracker.org]_by_RAmiRA.avi
General
Complete name : D:\ФИЛЬМЫ\Настоящая легенда_[rutracker.org]_by_RAmiRA.avi
Format : AVI
Format/Info : Audio Video Interleave
File size : 1.46 GiB
Duration : 1h 50mn
Overall bit rate : 1 900 Kbps
Writing application : VirtualDubModRus 1.5.10.2 (build 2540/release)
Writing library : VirtualDubMod build 2540/release
Video
Format : MPEG-4 Visual
Format profile : Streaming Video@L1
Format settings, BVOP : Yes
Format settings, QPel : No
Format settings, GMC : No warppoints
Format settings, Matrix : Default
Codec ID : XVID
Codec ID/Hint : XviD
Duration : 1h 50mn
Bit rate : 1 507 Kbps
Width : 704 pixels
Height : 288 pixels
Display aspect ratio : 2.444
Frame rate : 25.000 fps
Resolution : 24 bits
Colorimetry : 4:2:0
Scan type : Progressive
Bits/(Pixel*Frame) : 0.297
Stream size : 1.16 GiB (79%)
Writing library : XviD 50
Audio
Format : AC-3
Format/Info : Audio Coding 3
Codec ID : 2000
Duration : 1h 50mn
Bit rate mode : Constant
Bit rate : 384 Kbps
Channel(s) : 6 channels
Channel positions : Front: L C R, Surround: L R, LFE
Sampling rate : 48.0 KHz
Video delay : 1s 650ms
Stream size : 302 MiB (20%)
Alignment : Split accross interleaves
Interleave, duration : 40 ms (1.00 video frame)
Interleave, preload duration : 500 ms
скриншот

[Профиль] [ЛС]

infi2126

Пол: Мужской

Стаж: 9 лет 4 месяца

Сообщений: 10626

Создавать темы 18-Окт-2010 09:08 (спустя 5 минут)

[Цитировать]

Planinng
тут тех .данные лучше Настоящая легенда / True Legend / Su Qi-Er (Ву-Пин Юэнь / Woo-ping Yuen) [2010, Китай, боевик, драма, история, DVDRip] DUB
[Профиль] [ЛС]

Создавать темы 18-Окт-2010 09:09 (спустя 21 секунда)

Топик был перенесен из форума Драмы в форум Архив

infi2126
 
Показать сообщения:    
Тема закрыта

Текущее время: 24-Апр 11:34

Часовой пояс: UTC + 3



Вы не можете начинать темы
Вы не можете отвечать на сообщения
Вы не можете редактировать свои сообщения
Вы не можете удалять свои сообщения
Вы не можете голосовать в опросах
Вы не можете прикреплять файлы к сообщениям
Вы не можете скачивать файлы