Игра престолов / Game of Thrones / Сезон: 8 / Серии: 1-1 из 6 (Алан Тейлор, Даниэль Минахан, Дэвид Наттер, Брайан Кирк, Тимоти Ван Паттен) [2011-2019, США, Фэнтези, Триллер, WEB-DL 1080p] MVO (Amedia / Новамедиа) + Original + Sub (Rus, Eng)

Ответить на тему
 
Автор Сообщение

Mithas204 ®

Пол: Мужской

Стаж: 9 лет 4 месяца

Сообщений: 14113

Откуда: Душанбе, Курган-Тюбе

Создавать темы 15-Апр-2019 07:21

[Цитировать]

Игра престолов / Game of Thrones- - Год выпуска: 2019
Страна: США, Великобритания / Bighead Littlehead, Created By, Generator Entertainment, Home Box Office (HBO), Television 360
Жанр: фэнтези, драма, мелодрама, приключения
Продолжительность: 00:55:00-Перевод: Профессиональный (многоголосый закадровый) | студия Новамедиа по заказу Amedia-Режиссёр: Алан Тейлор, Даниэль Минахан, Дэвид Наттер, Брайан Кирк, Тимоти Ван Паттен, Дэвид Петрарка-В ролях: Питер Динклэйдж, Николай Костер-Вальдау, Лена Хиди, Эмилия Кларк, Кит Харингтон, Эйдан Гиллен, Софи Тёрнер, Мэйси Уильямс, Альфи Аллен, Айзек Хэмпстед-Райт, Рори Макканн, Лиам Каннингем, Джон Брэдли, Натали Дормер, Кэрис ван Хаутен, Джером Флинн, Конлет Хилл, Кристофер Хивью, Ханна Мюррей, Гвендолин Кристи, Иван Реон, Индира Варма, Михиль Хёйсман, Натали Эммануэль, Том Влашиха, Дин-Чарльз Чэпмен, Майкл Макэлхаттон, Джонатан Прайс, Иэн Глен и др.-Описание: «Игра престолов» новый сериал HBO, основанный на бестселлерах Джорджа Р.Р. Мартина. В мире, где лето и зимы длятся десятилетиями, на кону корона Вестероса. Предательство, похоть, интриги и сверхъестественные силы сотрясают все четыре стороны Королевства — от плетущего интриги юга, диких восточных земель, до замерзшего севера и древней Стены, что защищает королевство от тьмы за нею. Короли и королевы, рыцари и мятежники, лжецы и благородные люди борются за власть в кровавом сражении за Железный Трон.
 
Качество: WEB-DL 1080p
Контейнер: MKV
Видео: MPEG-4 AVC, 1920x1080 (16:9), 23.976 fps, 6600 Kbps, 0.119 bits/pixel
Аудио 1: 48 kHz, AC3, 2 ch, 192 kbps | Rus
Аудио 2: 48 kHz, E-AC3, 6 ch, 640 kbps | Eng
Субтитры: Русские (Full), английские (Full)
Реклама: Отсутствует
Спасибо: -
Доп. информация
«Игра престолов» — это вечная история об испытаниях на прочность и надежде на лучшее, жажде власти и бескорыстии, насилии и искренней любви, дружбе и предательстве, интригах и честности, жестокости и милосердии... Удивительно проникновенная и совершенно не детская энциклопедия человеческой «грязи» и добродетели. Сюжет разворачивается на фоне политических интриг и гражданской войны, вызванных борьбой за власть знатных домов Вестероса. Роберт Баратеон (Марк Эдди), король объединенных семи королевств, просит помощи у старого друга и верного слуги Эддарда Старка (Шон Бин), уговаривая его стать новой «десницей» короля. Старк подозревает, что его предшественник был убит, он пытается расследовать обстоятельства его гибели и защитить своего суверена. Между тем далеко от человеческой подлости и глупости пробуждается легендарная тьма, которая грозит гибелью всему живому. Между ней и миром людей стоит лишь стена да немногочисленное братство ночного дозора. «Игра престолов» является долгожданной экранизацией культового произведения мастера фэнтези Джорджа Р. Р. Мартина «Песнь Льда и Огня». В январе 2007 года права на экранизацию книг приобрел кабельный канал HBO. Необычайно темная атмосфера картины, хитросплетение интриг и трагических событий привлекают зрителя даже больше чем экзотическая обстановка или магия. Элементы фэнтези-реальности воспринимаются скорее как дополнение к сюжету. Сериал приобрел необычайно широкий для HBO размах — съемки проходят в Северной Ирландии и на Мальте, были приглашены звезды первой величины Шон Бин и Лена Хиди, а бюджет проекта превысил бюджет самого дорогого проекта компании — сериала «Рим».
Список серий
01. King's Landing
Анонс:
02. (21.04.2019)
03. (28.04.2019)
04. (05.05.2019)
05. (12.05.2019)
06. (19.05.2019)
MediaInfo
Полное имя : D:\RELEASE\Game.of.Thrones.S08.1080p.WEB-DL.Rus.Eng.EniaHD\Game.of.Thrones.S08E01.Kings.Landing.1080p.WEB-DL.Rus.Eng.EniaHD.mkv
Формат : Matroska
Версия формата : Version 4
Размер файла : 2,90 Гбайт
Продолжительность : 55 м. 47 с.
Общий поток : 7428 Кбит/сек
Дата кодирования : UTC 2019-04-15 02:27:28
Программа кодирования : mkvmerge v32.0.0 ('Astral Progressions') 32-bit
Библиотека кодирования : libebml v1.3.7 + libmatroska v1.5.0
Attachments : poster.Game.of.Thrones.jpg
Видео
Идентификатор : 1
Формат : AVC
Формат/Информация : Advanced Video Codec
Профиль формата : High@L4
Настройки формата : CABAC / 4 Ref Frames
Параметр CABAC формата : Да
Параметр RefFrames формата : 4 кадра
Идентификатор кодека : V_MPEG4/ISO/AVC
Продолжительность : 55 м. 45 с.
Вид битрейта : Постоянный
Битрейт : 6596 Кбит/сек
Номинальный битрейт : 10000 Кбит/сек
Ширина : 1920 пикселей
Высота : 1080 пикселей
Соотношение сторон : 16:9
Режим частоты кадров : Постоянный
Частота кадров : 23,976 (24000/1001) кадра/сек
Цветовое пространство : YUV
Субдискретизация насыщенности : 4:2:0
Битовая глубина : 8 бит
Тип развёртки : Прогрессивная
Бит/(Пиксели*Кадры) : 0.133
Размер потока : 2,57 Гбайт (89%)
Язык : English
Default : Да
Forced : Нет
Цветовой диапазон : Limited
Основные цвета : BT.709
Характеристики трансфера : BT.709
Коэффициенты матрицы : BT.709
Аудио #1
Идентификатор : 2
Формат : AC-3
Формат/Информация : Audio Coding 3
Коммерческое название : Dolby Digital
Идентификатор кодека : A_AC3
Продолжительность : 55 м. 45 с.
Вид битрейта : Постоянный
Битрейт : 192 Кбит/сек
Каналы : 2 канала
Channel layout : L R
Частота : 48,0 КГц
Частота кадров : 31,250 кадров/сек (1536 SPF)
Битовая глубина : 16 бит
Метод сжатия : С потерями
Размер потока : 76,6 Мбайт (3%)
Заголовок : AC3 2.0 @ 192 kbps - MVO, Novamedia
Язык : Russian
ServiceKind/String : Complete Main
Default : Да
Forced : Нет
Аудио #2
Идентификатор : 3
Формат : E-AC-3
Формат/Информация : Enhanced AC-3
Коммерческое название : Dolby Digital Plus
Идентификатор кодека : A_EAC3
Продолжительность : 55 м. 45 с.
Вид битрейта : Постоянный
Битрейт : 640 Кбит/сек
Каналы : 6 каналов
Channel layout : L R C LFE Ls Rs
Частота : 48,0 КГц
Частота кадров : 31,250 кадров/сек (1536 SPF)
Метод сжатия : С потерями
Задержка видео : 8 мс.
Размер потока : 255 Мбайт (9%)
Заголовок : E-AC3 5.1 @ 640 kbps - Original
Язык : English
ServiceKind/String : Complete Main
Default : Нет
Forced : Нет
Текст #1
Идентификатор : 4
Формат : UTF-8
Идентификатор кодека : S_TEXT/UTF8
Идентификатор кодека/Информация : UTF-8 Plain Text
Продолжительность : 46 м. 24 с.
Битрейт : 60 бит/сек
ElementCount : 433
Размер потока : 20,5 Кбайт (0%)
Заголовок : Full
Язык : Russian
Default : Нет
Forced : Нет
Текст #2
Идентификатор : 5
Формат : UTF-8
Идентификатор кодека : S_TEXT/UTF8
Идентификатор кодека/Информация : UTF-8 Plain Text
Продолжительность : 55 м. 41 с.
Битрейт : 45 бит/сек
ElementCount : 665
Размер потока : 18,4 Кбайт (0%)
Заголовок : Full SDH
Язык : English
Default : Нет
Forced : Нет
Меню
00:00:00.000 : en:Ratings
00:00:03.944 : en:Previously On
00:01:59.944 : en:Studio Logo
00:02:05.944 : en:Opening Credits
00:03:52.944 : en:Arrival in Winterfell
00:09:46.944 : en:Fight together or die
00:12:53.944 : en:Sansa sees through the lies
00:15:36.944 : en:A tearful reunion
00:17:45.944 : en:A queen must be earned
00:22:40.944 : en:Cersei asks a favor of Bronn
00:25:25.944 : en:What is dead may never die
00:29:24.944 : en:Hold on to whatever you can
00:36:41.944 : en:A forge for dragonglass
00:39:11.944 : en:Sansa is frustrated with Jon's choice
00:41:03.944 : en:The head of House Tarly
00:44:32.944 : en:It's time for Jon to know the truth
00:48:40.944 : en:A message from the Night King
00:52:28.944 : en:An unexpected visitor
00:53:43.944 : en:End Credits
00:55:03.944 : en:Next Time
00:55:40.944 : en:Inside Game of Thrones
Скриншоты
Раздача ведется путем добавления новых серий
Когда раздача ведётся путём добавления новых серий, при каждом добавлении создётся новый торрент. Чтобы начать докачку новой серии, пользователям необходимо сделать следующее:
(1) остановить скачивание,
(2) удалить старый торрент у себя из клиента (старые серии удалять не надо),
(3) скачать новый торрент и запустить его у себя в клиенте вместо старого, при этом указать клиенту путь в старую папку, куда и должно происходить скачивание новых серий.
Ваш клиент при этом должен произвести хеширование (проверку) старой папки (если не производит сам - помогите ему сделать это), и будет докачивать только те серии, которых у вас ещё нет. Старые серии при этом не удаляются, а продолжают раздаваться!
Eсли вы уже удалили старые серии, то предотвратить повторную закачку старых серий можно, отжав галочку в соответсвующих местах при запуске нового торрента. По возможности, желательно не удалять старые серии как можно дольше, чтобы релизёр не столько продолжал раздавать старые серии, а смог сконцентрироваться на новых.
[Профиль] [ЛС]

sexyboy

Пол: Мужской

Стаж: 9 лет 8 месяцев

Сообщений: 10573

Откуда: Dushanbe

Создавать темы 15-Апр-2019 07:55 (спустя 34 минуты)

[Цитировать]

не качает ку)
[Профиль] [ЛС]

Adiba

Пол: Женский

Стаж: 8 лет 11 месяцев

Сообщений: 2019

Откуда: СССР

Создавать темы 15-Апр-2019 14:50 (спустя 6 часов)

[Цитировать]

*DRINK*
[Профиль] [ЛС]

Root_tj

Пол: Мужской

Стаж: 4 года 10 месяцев

Сообщений: 6760

Откуда: Khujand

Создавать темы 16-Апр-2019 05:52 (спустя 15 часов)

[Цитировать]

погнали, спс за качество !!!
[Профиль] [ЛС]
Показать сообщения:    
Ответить на тему

Текущее время: 22-Апр 18:05

Часовой пояс: UTC + 3



Вы не можете начинать темы
Вы не можете отвечать на сообщения
Вы не можете редактировать свои сообщения
Вы не можете удалять свои сообщения
Вы не можете голосовать в опросах
Вы не можете прикреплять файлы к сообщениям
Вы не можете скачивать файлы