Ведьмина служба доставки / Kiki's Delivery Service / Majo no Takkyuubin (Миядзаки Хаяо) [Movie] [Без хардсаба] [RUS(ext), ENG, JAP+SUB] [1989, приключения, комедия, драма, сказка, BDRip] [1080p]

Ответить на тему
 
Автор Сообщение

Mithas204 ®

Пол: Мужской

Стаж: 9 лет 4 месяца

Сообщений: 14113

Откуда: Душанбе, Курган-Тюбе

Создавать темы 10-Апр-2019 09:28

[Цитировать]

Ведьмина служба доставки / Majo no Takkyuubin / Kiki's Delivery Service
Страна: Япония
Год выпуска: 1989 г.
Жанр: приключения, комедия, драма, сказка
Тип: Movie
Продолжительность: 01:43:02
Режиссер: Миядзаки Хаяо
Студия: Studio Ghibli
Описание: По правилам жизни ведьм, каждая из них, достигнув возраста 13-ти лет, должна найти город, где нет нечистой силы, и прожить в нем ровно год. Молодая ведьма (язык не поворачивается назвать её девочкой - ведьма всё-таки) Кики и ее котенок Дзидзи находят такой приморский городок, где и знакомится с добрым пекарем, который помогает ей начать собственное дело - Экстренную Службу Доставки. Работа знакомит Кики с множеством различных людей, предоставляя возможность обрести новых друзей и совершить массу всевозможных проделок.
Качество: BDRip 1080p
Тип релиза: Без хардсаба
Формат видео: MKV
Наличие линковки: Нет
Видео: H.264, 1920x1040, 8106 Kbps, 23.976fps, 8bit
Аудио:
1 (встроенное): FLAC, 1536 Kbps, 48000 Hz, 2ch
2 (встроенное): AС3, 192 Kbps, 48KHz, 2ch
3 (внешнее): AС3, 192 Kbps, 48KHz, 2ch [Дублированная, Сонотек]
4 (внешнее): AС3, 192 Kbps, 48KHz, 2ch [Многоголосая, Киномания]
5 (внешнее): DTS, 1509 Kbps, 48KHz, 2ch [Двухголосая, П. Гланц и Т. Казакова]
6 (внешнее): AС3, 224 Kbps, 48KHz, 2ch [Двухголосая, Tycoon-studio]
7 (внешнее): AC3, 192 Kbps, 48KHz, 2ch [Одноголосая, А. Гаврилов]
8 (внешнее): AC3, 192 Kbps, 48KHz, 2ch [Одноголосая, А. Толстобров]
Субтитры:
1 (внешние): ASS, перевод: Сонотек
2 (внешние): ASS, перевод: toph
3 (встроенные): Vobsub
Подробные тех. данные
Video
ID : 1
Format : AVC
Format/Info : Advanced Video Codec
Format profile : High@L4.1
Format settings : CABAC / 4 Ref Frames
Format settings, CABAC : Yes
Format settings, ReFrames : 4 frames
Codec ID : V_MPEG4/ISO/AVC
Duration : 1 h 44 min
Nominal bit rate : 8 000 kb/s
Width : 1 920 pixels
Height : 1 040 pixels
Display aspect ratio : 1.85:1
Frame rate mode : Constant
Frame rate : 23.976 (24000/1001) FPS
Color space : YUV
Chroma subsampling : 4:2:0
Bit depth : 8 bits
Scan type : Progressive
Bits/(Pixel*Frame) : 0.167
Writing library : x264 core 125 r2200 999b753
Encoding settings : cabac=1 / ref=4 / deblock=1:-1:-1 / analyse=0x3:0x113 / me=umh / subme=9 / psy=1 / psy_rd=1.00:0.00 / mixed_ref=1 / me_range=24 / chroma_me=1 / trellis=2 / 8x8dct=1 / cqm=0 / deadzone=21,11 / fast_pskip=1 / chroma_qp_offset=-2 / threads=18 / lookahead_threads=3 / sliced_threads=0 / nr=0 / decimate=1 / interlaced=0 / bluray_compat=0 / constrained_intra=0 / bframes=3 / b_pyramid=0 / b_adapt=2 / b_bias=0 / direct=3 / weightb=1 / open_gop=0 / weightp=2 / keyint=240 / keyint_min=23 / scenecut=40 / intra_refresh=0 / rc_lookahead=50 / rc=2pass / mbtree=1 / bitrate=8000 / ratetol=1.0 / qcomp=0.60 / qpmin=10 / qpmax=51 / qpstep=4 / cplxblur=20.0 / qblur=0.5 / vbv_maxrate=50000 / vbv_bufsize=50000 / nal_hrd=none / ip_ratio=1.40 / aq=1:1.00
Default : Yes
Forced : No
Audio #1
ID : 2
Format : FLAC
Format/Info : Free Lossless Audio Codec
Codec ID : A_FLAC
Duration : 1 h 44 min
Bit rate mode : Variable
Channel(s) : 2 channels
Channel layout : L R
Sampling rate : 48.0 kHz
Bit depth : 24 bits
Compression mode : Lossless
Writing library : libFLAC 1.2.1 (UTC 2007-09-17)
Language : Japanese
Default : No
Forced : No
Audio #2
ID : 3
Format : AC-3
Format/Info : Audio Coding 3
Commercial name : Dolby Digital
Codec ID : A_AC3
Duration : 1 h 44 min
Bit rate mode : Constant
Bit rate : 192 kb/s
Channel(s) : 2 channels
Channel layout : L R
Sampling rate : 48.0 kHz
Frame rate : 31.250 FPS (1536 SPF)
Bit depth : 16 bits
Compression mode : Lossy
Stream size : 143 MiB (2%)
Language : English
Service kind : Complete Main
Default : No
Forced : No
Audio #3
ID : 7
Format : AC-3
Format/Info : Audio Coding 3
Commercial name : Dolby Digital
Codec ID : A_AC3
Duration : 1 h 44 min
Bit rate mode : Constant
Bit rate : 192 kb/s
Channel(s) : 2 channels
Channel layout : L R
Sampling rate : 48.0 kHz
Frame rate : 31.250 FPS (1536 SPF)
Bit depth : 16 bits
Compression mode : Lossy
Stream size : 143 MiB (2%)
Title : Sonotec (dubbed)
Language : Russian
Service kind : Complete Main
Default : Yes
Forced : No
Audio #4
ID : 8
Format : AC-3
Format/Info : Audio Coding 3
Commercial name : Dolby Digital
Codec ID : A_AC3
Duration : 1 h 44 min
Bit rate mode : Constant
Bit rate : 192 kb/s
Channel(s) : 2 channels
Channel layout : L R
Sampling rate : 48.0 kHz
Frame rate : 31.250 FPS (1536 SPF)
Bit depth : 16 bits
Compression mode : Lossy
Stream size : 143 MiB (2%)
Title : Kinomania
Language : Russian
Service kind : Complete Main
Default : No
Forced : No
Audio #5
ID : 9
Format : DTS XLL
Format/Info : Digital Theater Systems
Commercial name : DTS-HD Master Audio
Codec ID : A_DTS
Duration : 1 h 44 min
Bit rate mode : Variable
Channel(s) : 2 channels
Channel layout : L R
Sampling rate : 48.0 kHz
Frame rate : 93.750 FPS (512 SPF)
Bit depth : 24 bits
Compression mode : Lossless
Title : Glanc-Kazakova
Language : Russian
Default : No
Forced : No
Audio #6
ID : 10
Format : AC-3
Format/Info : Audio Coding 3
Commercial name : Dolby Digital
Codec ID : A_AC3
Duration : 1 h 44 min
Bit rate mode : Constant
Bit rate : 224 kb/s
Channel(s) : 2 channels
Channel layout : L R
Sampling rate : 48.0 kHz
Frame rate : 31.250 FPS (1536 SPF)
Bit depth : 16 bits
Compression mode : Lossy
Stream size : 167 MiB (2%)
Title : Tycoon
Language : Russian
Service kind : Complete Main
Default : No
Forced : No
Audio #7
ID : 11
Format : AC-3
Format/Info : Audio Coding 3
Commercial name : Dolby Digital
Codec ID : A_AC3
Duration : 1 h 44 min
Bit rate mode : Constant
Bit rate : 192 kb/s
Channel(s) : 2 channels
Channel layout : L R
Sampling rate : 48.0 kHz
Frame rate : 31.250 FPS (1536 SPF)
Bit depth : 16 bits
Compression mode : Lossy
Stream size : 143 MiB (2%)
Title : Gavrilov
Language : Russian
Service kind : Complete Main
Default : No
Forced : No
Audio #8
ID : 12
Format : AC-3
Format/Info : Audio Coding 3
Commercial name : Dolby Digital
Codec ID : A_AC3
Duration : 1 h 44 min
Bit rate mode : Constant
Bit rate : 192 kb/s
Channel(s) : 2 channels
Channel layout : L R
Sampling rate : 48.0 kHz
Frame rate : 31.250 FPS (1536 SPF)
Bit depth : 16 bits
Compression mode : Lossy
Stream size : 143 MiB (2%)
Title : Tolstobrov
Language : Russian
Service kind : Complete Main
Default : No
Forced : No
Text #1
ID : 4
Format : VobSub
Muxing mode : zlib
Codec ID : S_VOBSUB
Codec ID/Info : Picture based subtitle format used on DVDs
Language : English
Default : Yes
Forced : No
Text #2
ID : 5
Format : ASS
Codec ID : S_TEXT/ASS
Codec ID/Info : Advanced Sub Station Alpha
Compression mode : Lossless
Default : No
Forced : No
Text #3
ID : 6
Format : ASS
Codec ID : S_TEXT/ASS
Codec ID/Info : Advanced Sub Station Alpha
Compression mode : Lossless
Default : No
Forced : No
Скриншоты
[Профиль] [ЛС]
Показать сообщения:    
Ответить на тему

Текущее время: 22-Апр 18:04

Часовой пояс: UTC + 3



Вы не можете начинать темы
Вы не можете отвечать на сообщения
Вы не можете редактировать свои сообщения
Вы не можете удалять свои сообщения
Вы не можете голосовать в опросах
Вы не можете прикреплять файлы к сообщениям
Вы не можете скачивать файлы