Отважная / Mardaani (Прадип Саркар / Pradeep Sarkar) [2014, Индия, боевик, триллер, драма, HDRip] MVO

Ответить на тему
 
Автор Сообщение

Mithas204 ®

Пол: Мужской

Стаж: 9 лет 4 месяца

Сообщений: 14113

Откуда: Душанбе, Курган-Тюбе

Создавать темы 31-Мар-2019 19:35

[Цитировать]

Отважная / Mardaani
-Страна: Индия
Жанр: Боевик
Год выпуска: 2014
Продолжительность: 01:54:17-Перевод: Любительский (многоголосый, закадровый) - ICG
Субтитры: Есть (только песни)--Режиссер: Прадип Саркар / Pradeep Sarkar-В ролях: Рани Мукхерджи, Тахир Радж Бхасин, Джишу Сенгупта, Санджай Танеджа, Анил Джордж--Описание: Фильм основан на реальных событиях. Индия - мировой лидер по сексуальной эксплуатации детей, которых ежегодно похищают около 40000. Каждые 8 минут в Индии пропадает одна девочка. И такой оказалась Пьяри, почти что дочь для Шивани Шаваджи Рой, старшего инспектора криминального отдела полиции. И теперь Шивани пойдет на все, чтобы спасти девочку, и разоблачить крупнейшую сеть накротрафика и сексуального рабства.-
-
|  
--Качество видео: HDRip [исх. BDRip 720p]
Формат видео: AVI-Видео: 720x304 (2.37:1), 24.000 fps, XviD build 50 ~1431 kbps avg, 0.27 bit/pixel
Аудио: 48 kHz, AC3 Dolby Digital, 3/2 (L,C,R,l,r) + LFE ch, ~384 kbps--Сэмпл / Sample--Творческая озвучка: ICG (спасибо!)
Перевод на русский язык: Rummata (спасибо!)
Риппер: soso4eg-- --
Скриншот с названием
--
Скриншоты
-
MI
Video
ID : 0
Format : MPEG-4 Visual
Format profile : Advanced Simple@L5
Format settings, BVOP : 1
Format settings, QPel : No
Format settings, GMC : No warppoints
Format settings, Matrix : Default (H.263)
Codec ID : XVID
Codec ID/Hint : XviD
Duration : 1h 54mn
Bit rate : 1 431 Kbps
Width : 720 pixels
Height : 304 pixels
Display aspect ratio : 2.35:1
Frame rate : 24.000 fps
Color space : YUV
Chroma subsampling : 4:2:0
Bit depth : 8 bits
Scan type : Progressive
Compression mode : Lossy
Bits/(Pixel*Frame) : 0.272
Stream size : 1.14 GiB (78%)
Writing library : XviD 1.2.1 (UTC 2008-12-04)
Audio
ID : 1
Format : AC-3
Format/Info : Audio Coding 3
Mode extension : CM (complete main)
Format settings, Endianness : Big
Codec ID : 2000
Duration : 1h 54mn
Bit rate mode : Constant
Bit rate : 384 Kbps
Channel count : 6 channels
Channel positions : Front: L C R, Side: L R, LFE
Sampling rate : 48.0 KHz
Bit depth : 16 bits
Compression mode : Lossy
Stream size : 313 MiB (21%)
Alignment : Split accross interleaves
Interleave, duration : 42 ms (1.00 video frame)
Interleave, preload duration : 500 ms
[Профиль] [ЛС]
Показать сообщения:    
Ответить на тему

Текущее время: 22-Апр 18:04

Часовой пояс: UTC + 3



Вы не можете начинать темы
Вы не можете отвечать на сообщения
Вы не можете редактировать свои сообщения
Вы не можете удалять свои сообщения
Вы не можете голосовать в опросах
Вы не можете прикреплять файлы к сообщениям
Вы не можете скачивать файлы