Шифр / Серии: 1-14 из 16 (Вера Сторожева) [2019, детектив, история, SATRip]

Ответить на тему
 
Автор Сообщение

Mithas204 ®

Пол: Мужской

Стаж: 9 лет 3 месяца

Сообщений: 14044

Откуда: Душанбе, Курган-Тюбе

Создавать темы 11-Мар-2019 19:14

[Цитировать]

Шифр (2018) SATRip - Производство: Россия / Sony Pictures Television
Жанр: детектив
Режиссер: Вера Сторожева
Актеры: Марьяна Спивак, Елена Панова, Екатерина Вилкова, Яна Дюбуи, Сергей Пускепалис, Михаил Евланов, Олег Гаас, Светлана Колпакова, Николай Токарев, Дмитрий Мазуров, Виктор Конухин и др.
Описание:
Москва, 1956 год. Четыре женщины, которых связывает военное прошлое: работа в спецотделе ГРУ, спустя 11 лет сходятся вновь, чтобы вести расследования и помогать следственным органам в особо запутанных делах. Обладая феноменальными аналитическими способностями, Ирина, Анна, Софья и Катерина, рискуют собой, а также благополучием собственных семей, чтобы выйти на след преступников, которые угрожают жизни простых людей и всей стране в целом. 
Возраст: 16+ (зрителям, достигшим 16 лет)
Дата российской премьеры: 11 марта 2019
Продолжительность: ~00:50:00 серия
Качество видео: SATRip
Видео: Xvid, 704x384 (1,85:1), ~1545 Kbps
Аудио: MP3, 2 ch, 192 Kbps
Mediainfo:
Общее
Полное имя : G:\Шифр (2018)\Серия 01.avi
Формат : AVI
Формат/Информация : Audio Video Interleave
Размер файла : 600 Мбайт
Продолжительность : 48 м. 4 с.
Общий поток : 1745 Кбит/сек
Программа кодирования : VirtualDubMod 1.5.10.3 | www.virtualdub-fr.org || (build 2550/release)
Библиотека кодирования : VirtualDubMod build 2550/release
Видео
Идентификатор : 0
Формат : MPEG-4 Visual
Профиль формата : Advanced Simple@L5
Настройки формата : BVOP1
Параметр BVOP формата : 1
Параметр QPel формата : Нет
Параметр GMC формата : Без точки перехода
Параметр матрицы формата : Default (MPEG)
Идентификатор кодека : XVID
Идентификатор кодека/Подсказка : XviD
Продолжительность : 48 м. 4 с.
Битрейт : 1543 Кбит/сек
Ширина : 704 пикселя
Высота : 384 пикселя
Соотношение сторон : 1,85:1
Частота кадров : 25,000 кадров/сек
Цветовое пространство : YUV
Субдискретизация насыщенности : 4:2:0
Битовая глубина : 8 бит
Тип развёртки : Прогрессивная
Метод сжатия : С потерями
Бит/(Пиксели*Кадры) : 0.228
Размер потока : 530 Мбайт (88%)
Библиотека кодирования : XviD 73
Аудио
Идентификатор : 1
Формат : MPEG Audio
Версия формата : Version 1
Профиль формата : Layer 3
Настройки формата : Joint stereo
Идентификатор кодека : 55
Идентификатор кодека/Подсказка : MP3
Продолжительность : 48 м. 4 с.
Вид битрейта : Постоянный
Битрейт : 192 Кбит/сек
Каналы : 2 канала
Частота : 48,0 КГц
Частота кадров : 41,667 кадра/сек (1152 SPF)
Метод сжатия : С потерями
Размер потока : 66,0 Мбайт (11%)
Выравнивание : Соединение по промежуткам
Продолжительность промежутка : 40 мс. (1,00 видеокадр)
Время предзагрузки промежутка : 504 мс.
Библиотека кодирования : LAME3.99r
Настройки программы : -m j -V 4 -q 2 -lowpass 18.6 -b 192
"Внимание! Раздача ведётся путём добавления новых серий"
Внимание! Раздача ведётся путём добавления новых серий; при каждом добавлении создаётся новый торрент.
Чтобы начать докачку новой серии, пользователям необходимо сделать следующее:
1. Остановить скачивание;
2. Удалить старый торрент у себя из клиента (старые серии удалять не надо);
3. Скачать новый торрент и запустить его у себя в клиенте вместо старого, при этом указать клиенту путь в старую папку куда и должно происходить скачивание новых серий. Ваш клиент при этом должен произвести хеширование (проверку) старой папки и будет докачивать только те серии, которых у вас ещё нет. Старые серии при этом не удаляются, а продолжают раздаваться! Eсли вы уже удалили старые серии, то предотвратить повторную закачку старых серий можно, отжав галочку в соответствующих местах при запуске нового торрента.
-Скриншоты:


Последний раз редактировалось: Mithas204 (2019-03-20 21:12), всего редактировалось 6 раз(а)
[Профиль] [ЛС]

Mithas204 ®

Пол: Мужской

Стаж: 9 лет 3 месяца

Сообщений: 14044

Откуда: Душанбе, Курган-Тюбе

Создавать темы 12-Мар-2019 18:04 (спустя 22 часа)

[Цитировать]

3 - 4
[Профиль] [ЛС]

Mithas204 ®

Пол: Мужской

Стаж: 9 лет 3 месяца

Сообщений: 14044

Откуда: Душанбе, Курган-Тюбе

Создавать темы 13-Мар-2019 18:25 (спустя 1 день)

[Цитировать]

5 - 6
[Профиль] [ЛС]

Mithas204 ®

Пол: Мужской

Стаж: 9 лет 3 месяца

Сообщений: 14044

Откуда: Душанбе, Курган-Тюбе

Создавать темы 14-Мар-2019 16:59 (спустя 22 часа)

[Цитировать]

7 - 8
[Профиль] [ЛС]

Root_tj

Пол: Мужской

Стаж: 4 года 9 месяцев

Сообщений: 6763

Откуда: Khujand

Создавать темы 15-Мар-2019 11:37 (спустя 18 часов)

[Цитировать]

спс
[Профиль] [ЛС]

Mithas204 ®

Пол: Мужской

Стаж: 9 лет 3 месяца

Сообщений: 14044

Откуда: Душанбе, Курган-Тюбе

Создавать темы 18-Мар-2019 18:56 (спустя 3 дня)

[Цитировать]

9 - 10
[Профиль] [ЛС]

Mithas204 ®

Пол: Мужской

Стаж: 9 лет 3 месяца

Сообщений: 14044

Откуда: Душанбе, Курган-Тюбе

Создавать темы 19-Мар-2019 18:37 (спустя 23 часа)

[Цитировать]

11 - 12
[Профиль] [ЛС]

Mithas204 ®

Пол: Мужской

Стаж: 9 лет 3 месяца

Сообщений: 14044

Откуда: Душанбе, Курган-Тюбе

Создавать темы 20-Мар-2019 21:12 (спустя 1 день 2 часа)

[Цитировать]

13 - 14
[Профиль] [ЛС]
Показать сообщения:    
Ответить на тему

Текущее время: 22-Мар 03:56

Часовой пояс: UTC + 3



Вы не можете начинать темы
Вы не можете отвечать на сообщения
Вы не можете редактировать свои сообщения
Вы не можете удалять свои сообщения
Вы не можете голосовать в опросах
Вы не можете прикреплять файлы к сообщениям
Вы не можете скачивать файлы