Реализация / Серии: 1-18 из 24 (Виктор Шкуратов, Сергей Щербин ) [2019, детектив, SATRip]

Ответить на тему
 
Автор Сообщение

Mithas204 ®

Пол: Мужской

Стаж: 9 лет 3 месяца

Сообщений: 14044

Откуда: Душанбе, Курган-Тюбе

Создавать темы 11-Мар-2019 19:11

[Цитировать]

Реализация (2018) SATRip - Производство: Россия / Триикс медиа по заказу телеканала НТВ
Жанр: детектив
Режиссер: Виктор Шкуратов
Актеры: Дмитрий Паламарчук, Эдуард Флёров, Кирилл Рубцов, Сергей Юшкевич, Михаил Тарабукин, Максим Дахненко, Алексей Красноцветов, Ирина Ларионова, Игорь Ключников, Сергей Жарков и др.
Описание:
Опытного розыскника из Великого Новгорода с необычной фамилией Красавец после конфликта с влиятельным бизнесменом переводят на должность простого участкового в Центральный район Петербурга. Все, чего он теперь хочет — тихо и мирно дослужить до пенсии. Но едва ли не каждый день на новом месте Красавец оказывается в эпицентре преступных событий: то его втягивают в разборки между криминальным авторитетом и коллегами из УМВД, то он занимается поисками похищенного начальника главка, то ему приходится охотиться на неуловимого киллера… 
Возраст: 16+ (зрителям, достигшим 16 лет)
Дата российской премьеры: 11 марта 2019
Продолжительность: ~00:50:00 серия
Качество видео: SATRip
Видео: Xvid, 720x400 (16:9), ~1510 Kbps
Аудио: MP3, 2 ch, 192 Kbps
Mediainfo:
Общее
Полное имя : G:\Реализация (2018)\Серия 01.avi
Формат : AVI
Формат/Информация : Audio Video Interleave
Размер файла : 600 Мбайт
Продолжительность : 49 м. 5 с.
Общий поток : 1709 Кбит/сек
Программа кодирования : VirtualDubMod 1.5.10.3 | www.virtualdub-fr.org || (build 2550/release)
Библиотека кодирования : VirtualDubMod build 2550/release
Видео
Идентификатор : 0
Формат : MPEG-4 Visual
Профиль формата : Advanced Simple@L5
Настройки формата : BVOP1
Параметр BVOP формата : 1
Параметр QPel формата : Нет
Параметр GMC формата : Без точки перехода
Параметр матрицы формата : Default (MPEG)
Идентификатор кодека : XVID
Идентификатор кодека/Подсказка : XviD
Продолжительность : 49 м. 5 с.
Битрейт : 1508 Кбит/сек
Ширина : 720 пикселей
Высота : 400 пикселей
Соотношение сторон : 16:9
Частота кадров : 25,000 кадров/сек
Цветовое пространство : YUV
Субдискретизация насыщенности : 4:2:0
Битовая глубина : 8 бит
Тип развёртки : Прогрессивная
Метод сжатия : С потерями
Бит/(Пиксели*Кадры) : 0.209
Размер потока : 529 Мбайт (88%)
Библиотека кодирования : XviD 73
Аудио
Идентификатор : 1
Формат : MPEG Audio
Версия формата : Version 1
Профиль формата : Layer 3
Настройки формата : Joint stereo / MS Stereo
Идентификатор кодека : 55
Идентификатор кодека/Подсказка : MP3
Продолжительность : 49 м. 4 с.
Вид битрейта : Постоянный
Битрейт : 192 Кбит/сек
Каналы : 2 канала
Частота : 48,0 КГц
Частота кадров : 41,667 кадра/сек (1152 SPF)
Метод сжатия : С потерями
Размер потока : 67,4 Мбайт (11%)
Выравнивание : Соединение по промежуткам
Продолжительность промежутка : 40 мс. (1,00 видеокадр)
Время предзагрузки промежутка : 504 мс.
Библиотека кодирования : LAME3.99r
Настройки программы : -m j -V 4 -q 2 -lowpass 18.6 -b 192
"Внимание! Раздача ведётся путём добавления новых серий"
Внимание! Раздача ведётся путём добавления новых серий; при каждом добавлении создаётся новый торрент.
Чтобы начать докачку новой серии, пользователям необходимо сделать следующее:
1. Остановить скачивание;
2. Удалить старый торрент у себя из клиента (старые серии удалять не надо);
3. Скачать новый торрент и запустить его у себя в клиенте вместо старого, при этом указать клиенту путь в старую папку куда и должно происходить скачивание новых серий. Ваш клиент при этом должен произвести хеширование (проверку) старой папки и будет докачивать только те серии, которых у вас ещё нет. Старые серии при этом не удаляются, а продолжают раздаваться! Eсли вы уже удалили старые серии, то предотвратить повторную закачку старых серий можно, отжав галочку в соответствующих местах при запуске нового торрента.
-Скриншоты:


Последний раз редактировалось: Mithas204 (2019-03-20 21:11), всего редактировалось 7 раз(а)
[Профиль] [ЛС]

Mithas204 ®

Пол: Мужской

Стаж: 9 лет 3 месяца

Сообщений: 14044

Откуда: Душанбе, Курган-Тюбе

Создавать темы 12-Мар-2019 18:05 (спустя 22 часа)

[Цитировать]

5 - 6
[Профиль] [ЛС]

Mithas204 ®

Пол: Мужской

Стаж: 9 лет 3 месяца

Сообщений: 14044

Откуда: Душанбе, Курган-Тюбе

Создавать темы 13-Мар-2019 17:27 (спустя 23 часа)

[Цитировать]

7 - 8
[Профиль] [ЛС]

Mithas204 ®

Пол: Мужской

Стаж: 9 лет 3 месяца

Сообщений: 14044

Откуда: Душанбе, Курган-Тюбе

Создавать темы 15-Мар-2019 06:59 (спустя 1 день 13 часов)

[Цитировать]

9 - 10
[Профиль] [ЛС]

Root_tj

Пол: Мужской

Стаж: 4 года 9 месяцев

Сообщений: 6763

Откуда: Khujand

Создавать темы 15-Мар-2019 11:37 (спустя 4 часа)

[Цитировать]

спасибо
[Профиль] [ЛС]

Mithas204 ®

Пол: Мужской

Стаж: 9 лет 3 месяца

Сообщений: 14044

Откуда: Душанбе, Курган-Тюбе

Создавать темы 16-Мар-2019 15:21 (спустя 1 день 3 часа)

[Цитировать]

11 - 12
[Профиль] [ЛС]

Mithas204 ®

Пол: Мужской

Стаж: 9 лет 3 месяца

Сообщений: 14044

Откуда: Душанбе, Курган-Тюбе

Создавать темы 16-Мар-2019 21:18 (спустя 5 часов)

[Цитировать]

x закрыто · Mithas204 до 13 - 14 серий
[Профиль] [ЛС]

Mithas204 ®

Пол: Мужской

Стаж: 9 лет 3 месяца

Сообщений: 14044

Откуда: Душанбе, Курган-Тюбе

Создавать темы 18-Мар-2019 08:59 (спустя 1 день 11 часов)

[Цитировать]

Готово
[Профиль] [ЛС]

Mithas204 ®

Пол: Мужской

Стаж: 9 лет 3 месяца

Сообщений: 14044

Откуда: Душанбе, Курган-Тюбе

Создавать темы 19-Мар-2019 06:35 (спустя 21 час)

[Цитировать]

13 - 14
[Профиль] [ЛС]

Mithas204 ®

Пол: Мужской

Стаж: 9 лет 3 месяца

Сообщений: 14044

Откуда: Душанбе, Курган-Тюбе

Создавать темы 19-Мар-2019 18:38 (спустя 12 часов)

[Цитировать]

15 -16
[Профиль] [ЛС]

Root_tj

Пол: Мужской

Стаж: 4 года 9 месяцев

Сообщений: 6763

Откуда: Khujand

Создавать темы 20-Мар-2019 06:59 (спустя 12 часов)

[Цитировать]

спс за продолжение
[Профиль] [ЛС]

Mithas204 ®

Пол: Мужской

Стаж: 9 лет 3 месяца

Сообщений: 14044

Откуда: Душанбе, Курган-Тюбе

Создавать темы 20-Мар-2019 21:11 (спустя 14 часов)

[Цитировать]

17 - 18
[Профиль] [ЛС]
Показать сообщения:    
Ответить на тему

Текущее время: 22-Мар 03:56

Часовой пояс: UTC + 3



Вы не можете начинать темы
Вы не можете отвечать на сообщения
Вы не можете редактировать свои сообщения
Вы не можете удалять свои сообщения
Вы не можете голосовать в опросах
Вы не можете прикреплять файлы к сообщениям
Вы не можете скачивать файлы