30 безумных желаний / Then Came You (2018) WEB-DLRip | L2

Ответить на тему
 
Автор Сообщение

Grandfather61 ®

Пол: Не указан

Стаж: 10 месяцев 5 дней

Сообщений: 639

Создавать темы 11-Фев-2019 09:49

[Цитировать]


Информация о фильме
Название: 30 безумных желаний
Оригинальное название: Then Came You
Год выхода: 2018
Жанр: Драма, комедия, приключения
Режиссер: Питер Хатчингс
В ролях: Эйса Баттерфилд, Нина Добрев, Мэйси Уильямс, Пейтон Лист, Кен Жонг, Тайлер Хэклин, Соня Уолгер, Дэвид Кёкнер, Титус Берджесс, Бриана Венскус
О фильме:
Келвин - мнительный ипохондрик, сортирующий багаж в аэропорту, попутно придумывая себе несуществующие болезни. Скай - девушка-праздник, которая видит в жизни только хорошее. Вернее, в том коротком отрезке жизни, что ей остался. За это время она хочет успеть осуществить свои самые безумные желания. Вместе они заново откроют этот мир и самих себя с весьма неожиданных сторон.

Страна: США, BCDF Pictures
Продолжительность: 01:37:18
Перевод: Любительский (двухголосый закадровый) | HiWay Grope
Файл
Кодек: XviD
Качество: WEB-DLRip
Видео: 720x304, 23.976 fps, ~1803 kbps, 0.34 bit/pixel
Звук:
Аудио rus: AC3, 48 kHz, 2 ch, 192 Kbps
Субтитры: отсутствуют
Реклама: присутствует
Семпл
MediaInfo:
General
Complete name : D:\Then.Came.You.2018.WEB-DLRip.HiWayGrope\Then.Came.You.2018.WEB-DLRip.HiWayGrope.avi
Format : AVI
Format/Info : Audio Video Interleave
Format profile : OpenDML
File size : 1.36 GiB
Duration : 1 h 37 min
Overall bit rate : 2 003 kb/s
Writing application : Lavf57.71.100
Video
ID : 0
Format : MPEG-4 Visual
Format profile : Advanced Simple@L5
Format settings, BVOP : No
Format settings, QPel : No
Format settings, GMC : No warppoints
Format settings, Matrix : Default (H.263)
Codec ID : XVID
Codec ID/Hint : XviD
Duration : 1 h 37 min
Bit rate : 1 798 kb/s
Width : 720 pixels
Height : 304 pixels
Display aspect ratio : 2.40:1
Frame rate : 23.976 (24000/1001) FPS
Color space : YUV
Chroma subsampling : 4:2:0
Bit depth : 8 bits
Scan type : Progressive
Compression mode : Lossy
Bits/(Pixel*Frame) : 0.343
Stream size : 1.22 GiB (90%)
Writing library : XviD 67
Audio
ID : 1
Format : AC-3
Format/Info : Audio Coding 3
Commercial name : Dolby Digital
Codec ID : 2000
Duration : 1 h 37 min
Bit rate mode : Constant
Bit rate : 192 kb/s
Channel(s) : 2 channels
Channel layout : L R
Sampling rate : 48.0 kHz
Frame rate : 31.250 FPS (1536 SPF)
Bit depth : 16 bits
Compression mode : Lossy
Stream size : 134 MiB (10%)
Alignment : Aligned on interleaves
Interleave, duration : 32 ms (0.77 video frame)
Service kind : Complete Main
Скриншоты
Релиз от: HiWay Grope
[Профиль] [ЛС]
Показать сообщения:    
Ответить на тему

Текущее время: 20-Фев 11:28

Часовой пояс: UTC + 3



Вы не можете начинать темы
Вы не можете отвечать на сообщения
Вы не можете редактировать свои сообщения
Вы не можете удалять свои сообщения
Вы не можете голосовать в опросах
Вы не можете прикреплять файлы к сообщениям
Вы не можете скачивать файлы