30 безумных желаний / Then Came You (2018) WEB-DLRip 720p | L2

Ответить на тему
 
Автор Сообщение

Grandfather61 ®

Пол: Не указан

Стаж: 10 месяцев 5 дней

Сообщений: 639

Создавать темы 11-Фев-2019 09:48

[Цитировать]


Информация о фильме
Название: 30 безумных желаний
Оригинальное название: Then Came You
Год выхода: 2018
Жанр: Драма, комедия, приключения
Режиссер: Питер Хатчингс
В ролях: Эйса Баттерфилд, Нина Добрев, Мэйси Уильямс, Пейтон Лист, Кен Жонг, Тайлер Хэклин, Соня Уолгер, Дэвид Кёкнер, Титус Берджесс, Бриана Венскус
О фильме:
Келвин - мнительный ипохондрик, сортирующий багаж в аэропорту, попутно придумывая себе несуществующие болезни. Скай - девушка-праздник, которая видит в жизни только хорошее. Вернее, в том коротком отрезке жизни, что ей остался. За это время она хочет успеть осуществить свои самые безумные желания. Вместе они заново откроют этот мир и самих себя с весьма неожиданных сторон.

Страна: США, BCDF Pictures
Продолжительность: 01:37:18
Перевод: Любительский (двухголосый закадровый) | HiWay Grope
Файл
Кодек: MPEG-4 AVC/x.264
Качество: WEB-DLRip 720p
Видео: 1280x532, 23.976 fps, ~2992 kbps, 0.183 bit/pixel
Звук:
Аудио rus: AC3, 48 kHz, 2 ch, 192 Kbps
Субтитры: отсутствуют
Реклама: присутствует
Семпл
MediaInfo:
General
Unique ID : 14215724484383154152476047069064842166 (0xAB1D9548FDD21861B28536A4E99CBB6)
Complete name : D:\Then.Came.You.2018.720p.WEB-DLRip.HiWayGrope\Then.Came.You.2018.720p.WEB-DLRip.HiWayGrope.mkv
Format : Matroska
Format version : Version 4
File size : 2.17 GiB
Duration : 1 h 37 min
Overall bit rate mode : Variable
Overall bit rate : 3 186 kb/s
Encoded date : UTC 2019-02-10 11:11:35
Writing application : mkvmerge v25.0.0 ('Prog Noir') 64-bit
Writing library : libebml v1.3.6 + libmatroska v1.4.9
Video
ID : 1
Format : AVC
Format/Info : Advanced Video Codec
Format profile : High@L5
Format settings : CABAC / 4 Ref Frames
Format settings, CABAC : Yes
Format settings, RefFrames : 4 frames
Codec ID : V_MPEG4/ISO/AVC
Duration : 1 h 37 min
Bit rate mode : Variable
Bit rate : 2 992 kb/s
Maximum bit rate : 12.0 Mb/s
Width : 1 280 pixels
Height : 532 pixels
Display aspect ratio : 2.40:1
Frame rate mode : Constant
Frame rate : 23.976 (24000/1001) FPS
Standard : NTSC
Color space : YUV
Chroma subsampling : 4:2:0
Bit depth : 8 bits
Scan type : Progressive
Bits/(Pixel*Frame) : 0.183
Stream size : 2.03 GiB (94%)
Language : English
Default : Yes
Forced : No
Color range : Limited
Color primaries : BT.601 NTSC
Transfer characteristics : BT.601
Matrix coefficients : BT.601
Audio
ID : 2
Format : AC-3
Format/Info : Audio Coding 3
Commercial name : Dolby Digital
Codec ID : A_AC3
Duration : 1 h 37 min
Bit rate mode : Constant
Bit rate : 192 kb/s
Channel(s) : 2 channels
Channel layout : L R
Sampling rate : 48.0 kHz
Frame rate : 31.250 FPS (1536 SPF)
Bit depth : 16 bits
Compression mode : Lossy
Stream size : 134 MiB (6%)
Service kind : Complete Main
Default : Yes
Forced : No
Скриншоты
Релиз от: HiWay Grope
[Профиль] [ЛС]
Показать сообщения:    
Ответить на тему

Текущее время: 20-Фев 11:35

Часовой пояс: UTC + 3



Вы не можете начинать темы
Вы не можете отвечать на сообщения
Вы не можете редактировать свои сообщения
Вы не можете удалять свои сообщения
Вы не можете голосовать в опросах
Вы не можете прикреплять файлы к сообщениям
Вы не можете скачивать файлы