Жена / The Wife (Бьёрн Рунге / Björn Runge) [2017, Великобритания, Швеция, США, драма, BDRip 720p]

Ответить на тему
 
Автор Сообщение

Mithas204 ®

Пол: Мужской

Стаж: 9 лет 2 месяца

Сообщений: 13983

Откуда: Душанбе, Курган-Тюбе

Создавать темы 08-Фев-2019 09:59

[Цитировать]

Жена / The Wife- Производство: Великобритания, Швеция, США, Tempo Productions Limited,Anonymous Content,Film i Väst
Жанр: Драма
Режиссер: Бьёрн Рунге
Актеры: Гленн Клоуз, Джонатан Прайс, Кристиан Слэйтер, Макс Айронс, Энни Старк, Элизабет МакГоверн, Гарри Ллойд, Моргана Полански, Аликс Вилтон Риган, Карин Франц Кёрлоф
Описание:
История Джоан Кастлман, которая состояла в браке с известным писателем сорок лет и внезапно решила развестись с ним. Ситуация примечательна тем, что Джоан оставляет супруга накануне вручения тому Нобелевской премии. 
Возраст: 18+ (зрителям, достигшим 18 лет. запрещено для детей)
Рейтинг MPAA: R (лицам до 17 лет обязательно присутствие взрослого)
Дата мировой премьеры: 12 сентября 2017
Дата российской премьеры: 22 ноября 2018, «ПРОвзгляд», «НД Плэй»
Продолжительность: 01:40:29
Качество видео: BDRip
Перевод: Дублированный (iTunes)
Субтитры: Русские, английские
Видео: AVC/H.264, 1280x534, ~3906 Kbps
Аудио: AC3, 6 ch, 384 Kbps | Русский (DUB, iTunes)
Аудио: AC3, 6 ch, 448 Kbps | Английский
Mediainfo:
General
Unique ID : 190560830836108946692688639297157151475 (0x8F5CAE58356A7BC1989458FCFEFD3AF3)
Complete name : \TheWifeBDRip720p.mkv
Format : Matroska
Format version : Version 4
File size : 3.33 GiB
Duration : 1 h 40 min
Overall bit rate : 4 739 kb/s
Encoded date : UTC 2019-02-07 08:44:09
Writing application : mkvmerge v9.5.0 ('Quiet Fire') 64bit
Writing library : libebml v1.3.4 + libmatroska v1.4.5
Video
ID : 1
Format : AVC
Format/Info : Advanced Video Codec
Format profile : High@L4.1
Format settings : CABAC / 12 Ref Frames
Format settings, CABAC : Yes
Format settings, ReFrames : 12 frames
Codec ID : V_MPEG4/ISO/AVC
Duration : 1 h 40 min
Bit rate : 3 906 kb/s
Width : 1 280 pixels
Height : 534 pixels
Display aspect ratio : 2.40:1
Frame rate mode : Constant
Frame rate : 23.976 (24000/1001) FPS
Color space : YUV
Chroma subsampling : 4:2:0
Bit depth : 8 bits
Scan type : Progressive
Bits/(Pixel*Frame) : 0.238
Stream size : 2.74 GiB (82%)
Writing library : x264 core 157 r2935 545de2f
Encoding settings : cabac=1 / ref=12 / deblock=1:-1:-1 / analyse=0x3:0x133 / me=umh / subme=11 / psy=1 / psy_rd=1.00:0.00 / mixed_ref=1 / me_range=32 / chroma_me=1 / trellis=2 / 8x8dct=1 / cqm=0 / deadzone=21,11 / fast_pskip=0 / chroma_qp_offset=-2 / threads=5 / lookahead_threads=1 / sliced_threads=0 / nr=0 / decimate=0 / interlaced=0 / bluray_compat=0 / constrained_intra=0 / bframes=12 / b_pyramid=2 / b_adapt=2 / b_bias=0 / direct=3 / weightb=1 / open_gop=0 / weightp=2 / keyint=240 / keyint_min=24 / scenecut=40 / intra_refresh=0 / rc_lookahead=120 / rc=2pass / mbtree=0 / bitrate=3906 / ratetol=1.0 / qcomp=0.70 / qpmin=0 / qpmax=69 / qpstep=4 / cplxblur=20.0 / qblur=0.5 / vbv_maxrate=62500 / vbv_bufsize=78125 / nal_hrd=none / filler=0 / ip_ratio=1.40 / pb_ratio=1.30 / aq=3:0.80
Language : English
Default : Yes
Forced : No
Audio #1
ID : 2
Format : AC-3
Format/Info : Audio Coding 3
Commercial name : Dolby Digital
Codec ID : A_AC3
Duration : 1 h 40 min
Bit rate mode : Constant
Bit rate : 384 kb/s
Channel(s) : 6 channels
Channel layout : L R C LFE Ls Rs
Sampling rate : 48.0 kHz
Frame rate : 31.250 FPS (1536 SPF)
Bit depth : 16 bits
Compression mode : Lossy
Stream size : 275 MiB (8%)
Language : Russian
Service kind : Complete Main
Default : Yes
Forced : No
Audio #2
ID : 3
Format : AC-3
Format/Info : Audio Coding 3
Commercial name : Dolby Digital
Codec ID : A_AC3
Duration : 1 h 40 min
Bit rate mode : Constant
Bit rate : 448 kb/s
Channel(s) : 6 channels
Channel layout : L R C LFE Ls Rs
Sampling rate : 48.0 kHz
Frame rate : 31.250 FPS (1536 SPF)
Bit depth : 16 bits
Compression mode : Lossy
Stream size : 322 MiB (9%)
Language : English
Service kind : Complete Main
Default : No
Forced : No
Text #1
ID : 4
Format : UTF-8
Codec ID : S_TEXT/UTF8
Codec ID/Info : UTF-8 Plain Text
Duration : 1 h 11 min
Bit rate : 0 b/s
Count of elements : 13
Stream size : 491 Bytes (0%)
Title : rusForced
Language : Russian
Default : Yes
Forced : Yes
Text #2
ID : 5
Format : UTF-8
Codec ID : S_TEXT/UTF8
Codec ID/Info : UTF-8 Plain Text
Duration : 1 h 31 min
Bit rate : 72 b/s
Count of elements : 1434
Stream size : 48.5 KiB (0%)
Title : engFull
Language : English
Default : No
Forced : No
Text #3
ID : 6
Format : UTF-8
Codec ID : S_TEXT/UTF8
Codec ID/Info : UTF-8 Plain Text
Duration : 1 h 31 min
Bit rate : 75 b/s
Count of elements : 1540
Stream size : 51.1 KiB (0%)
Title : engSDH
Language : English
Default : No
Forced : No
Menu
00:00:00.000 : :Chapter 01
00:06:21.506 : :Chapter 02
00:13:46.867 : :Chapter 03
00:20:05.162 : :Chapter 04
00:26:50.734 : :Chapter 05
00:33:07.527 : :Chapter 06
00:39:51.639 : :Chapter 07
00:45:37.776 : :Chapter 08
00:53:06.099 : :Chapter 09
01:00:44.599 : :Chapter 10
01:06:35.992 : :Chapter 11
01:11:37.543 : :Chapter 12
01:15:03.790 : :Chapter 13
01:21:19.791 : :Chapter 14
01:26:44.991 : :Chapter 15
01:33:23.055 : :Chapter 16
-Скриншоты:
[Профиль] [ЛС]
Показать сообщения:    
Ответить на тему

Текущее время: 20-Фев 11:32

Часовой пояс: UTC + 3



Вы не можете начинать темы
Вы не можете отвечать на сообщения
Вы не можете редактировать свои сообщения
Вы не можете удалять свои сообщения
Вы не можете голосовать в опросах
Вы не можете прикреплять файлы к сообщениям
Вы не можете скачивать файлы