Айдар Абильдин | Полноценный видеокурс по After Effects и Моушн Дизайну (2016) PCRec

Ответить на тему
 
Автор Сообщение

banzay ®

Пол: Мужской

Стаж: 10 лет

Сообщений: 1522

Создавать темы 31-Дек-2018 20:45

[Цитировать]

Айдар Абильдин | Полноценный видеокурс по After Effects и Моушн Дизайну (2016) PCRec - Автор (режиссер): Айдар Абильдин
Производство: Creativetuts.ru
Жанр: Обучающее видео
Описание:
Самый полный курс по After Effects, включающий себя все аспекты After Effects. В этом тренинге будет много практики, практических приемов и освоении навыков, также полностью будет освоена и теория и инструментарий. Потрясающий тренинг (курс) по After Effects! Изучите основы, сможете создавать потрясающую живую и динамичную анимацию, красивую и классную шейповую анимацию а также текстовую анимацию и типографику в After Effects. И многое другое!
От автора:
В этом тренинге (курсе) вас ждет много практики, практических приемов, вы поймете как все работает, что нужно делать и как же создавать моушн анимацию в After Effects!
Главный и самый важный результат который вы получите это практические навыки, которые вы сможете применять в любом своем проекте! То есть, вы не просто будете слепо повторять за преподавателем его действия, а вы освоите навыки, хитрости, практические приемы, которые сможете применять сами, в любых проектах. Таким образом, вы уже сможете создавать первоклассную шейповую анимацию, моушн анимацию, текстовую анимацию и типографику в After Effects. То есть вы поймете принцип работы, вы освоите практические навыки.
Продолжительность: 56:49:58
Качество видео: PCRec
Видео: AVC/H.264, 1280x720, ~110 Kbps
Аудио: AAC, 2 ch, 126 kbps
Mediainfo:
General
Complete name : E:\torrents\Abildin_poln_kurs_AE_i_mouh\Блок 1. Основы\01. Интерфейс.mp4
Format : MPEG-4
Format profile : Base Media / Version 2
Codec ID : mp42 (isom/mp42)
File size : 42.3 MiB
Duration : 24 min 43 s
Overall bit rate mode : Variable
Overall bit rate : 239 kb/s
Encoded date : UTC 2017-02-14 05:59:40
Tagged date : UTC 2017-02-14 05:59:40
Video
ID : 1
Format : AVC
Format/Info : Advanced Video Codec
Format profile : Main@L4.1
Format settings, CABAC : Yes
Format settings, ReFrames : 4 frames
Codec ID : avc1
Codec ID/Info : Advanced Video Coding
Duration : 24 min 43 s
Bit rate : 110 kb/s
Width : 1 280 pixels
Height : 720 pixels
Display aspect ratio : 16:9
Frame rate mode : Constant
Frame rate : 30.000 FPS
Standard : NTSC
Color space : YUV
Chroma subsampling : 4:2:0
Bit depth : 8 bits
Scan type : Progressive
Bits/(Pixel*Frame) : 0.004
Stream size : 19.5 MiB (46%)
Language : English
Encoded date : UTC 2017-02-14 05:59:41
Tagged date : UTC 2017-02-14 05:59:41
Color range : Limited
Audio
ID : 2
Format : AAC
Format/Info : Advanced Audio Codec
Format profile : LC
Codec ID : 40
Duration : 24 min 43 s
Bit rate mode : Variable
Bit rate : 126 kb/s
Maximum bit rate : 222 kb/s
Channel(s) : 2 channels
Channel positions : Front: L R
Sampling rate : 44.1 kHz
Frame rate : 43.066 FPS (1024 spf)
Compression mode : Lossy
Stream size : 22.2 MiB (53%)
Language : English
Encoded date : UTC 2017-02-14 05:59:41
Tagged date : UTC 2017-02-14 05:59:41
-Скриншоты:
Дополнительные скриншоты:
Время раздачи: 18:00-24:00 (до появления первых 3-5 скачавших)
[Профиль] [ЛС]
Показать сообщения:    
Ответить на тему

Текущее время: 25-Мар 01:31

Часовой пояс: UTC + 3



Вы не можете начинать темы
Вы не можете отвечать на сообщения
Вы не можете редактировать свои сообщения
Вы не можете удалять свои сообщения
Вы не можете голосовать в опросах
Вы не можете прикреплять файлы к сообщениям
Вы не можете скачивать файлы