Девочка и робот / Mail Order Monster [2018, Фантастика, Драма, Семейный, WEB-DLRip | HiWay Grope]

Ответить на тему
 
Автор Сообщение

Grandfather61 ®

Пол: Не указан

Стаж: 7 месяцев 26 дней

Сообщений: 375

Создавать темы 06-Дек-2018 13:11

[Цитировать]


Название: Девочка и робот
Оригинальное название: Mail Order Monster
Год выхода: 2018
Жанр: Фантастика, драма, семейный
Режиссер: Паулина Лагуди
В ролях: Чаризма Карпентер, Джош Хопкинс, Эмма Рэйн Лайл, Билл Билльонс, Лиа Хаттон Бисмор, Мэдисон Хорчер, Карен Б. Грир, Ронни Л. Клири, Аллен Хоган, Хлоя Грейс Льючик
О фильме:
Мама Сэм погибает в автоаварии, и девочка замыкается в себе и становится объектом насмешек одноклассников. Она собирает робота из набора, чтобы он защитил ее от злых языков и новой папиной подружки.

Страна: США, Jax Productions, Stay Relevant Productions
Продолжительность: 01:29:36
Перевод: Любительский (двухголосый закадровый) | HiWay Grope
Качество: WEB-DLRip
Видео: XviD, 720x400, 23.976 fps, ~1803 kbps, 0.26 bit/pixel
Аудио: AC3, 48 kHz, 2 ch, 192 Kbps
Субтитры: отсутствуют
Реклама: присутствует
Семпл
MediaInfo:
General
Complete name : D:\Mail.Order.Monster.2018.WEB-DLRip.HiWayGrope\Mail.Order.Monster.2018.WEB-DLRip.HiWayGrope.avi
Format : AVI
Format/Info : Audio Video Interleave
Format profile : OpenDML
File size : 1.25 GiB
Duration : 1 h 29 min
Overall bit rate : 2 003 kb/s
Writing application : Lavf57.71.100
Video
ID : 0
Format : MPEG-4 Visual
Format profile : Advanced Simple@L5
Format settings, BVOP : No
Format settings, QPel : No
Format settings, GMC : No warppoints
Format settings, Matrix : Default (H.263)
Codec ID : XVID
Codec ID/Hint : XviD
Duration : 1 h 29 min
Bit rate : 1 798 kb/s
Width : 720 pixels
Height : 400 pixels
Display aspect ratio : 16:9
Frame rate : 23.976 (24000/1001) FPS
Color space : YUV
Chroma subsampling : 4:2:0
Bit depth : 8 bits
Scan type : Progressive
Compression mode : Lossy
Bits/(Pixel*Frame) : 0.260
Stream size : 1.13 GiB (90%)
Writing library : XviD 67
Audio
ID : 1
Format : AC-3
Format/Info : Audio Coding 3
Codec ID : 2000
Duration : 1 h 29 min
Bit rate mode : Constant
Bit rate : 192 kb/s
Channel(s) : 2 channels
Channel positions : Front: L R
Sampling rate : 48.0 kHz
Frame rate : 31.250 FPS (1536 SPF)
Bit depth : 16 bits
Compression mode : Lossy
Stream size : 123 MiB (10%)
Alignment : Aligned on interleaves
Interleave, duration : 32 ms (0.77 video frame)
Service kind : Complete Main
Скриншоты
Релиз от: HiWay Grope
[Профиль] [ЛС]
Показать сообщения:    
Ответить на тему

Текущее время: 11-Дек 11:08

Часовой пояс: UTC + 3



Вы не можете начинать темы
Вы не можете отвечать на сообщения
Вы не можете редактировать свои сообщения
Вы не можете удалять свои сообщения
Вы не можете голосовать в опросах
Вы не можете прикреплять файлы к сообщениям
Вы не можете скачивать файлы