Девочка и робот / Mail Order Monster [2018, Фантастика, Драма, Семейный, WEB-DLRip 720р | HiWay Grope]

Ответить на тему
 
Автор Сообщение

Grandfather61 ®

Пол: Не указан

Стаж: 7 месяцев 26 дней

Сообщений: 375

Создавать темы 06-Дек-2018 13:09

[Цитировать]


Название: Девочка и робот
Оригинальное название: Mail Order Monster
Год выхода: 2018
Жанр: Фантастика, драма, семейный
Режиссер: Паулина Лагуди
В ролях: Чаризма Карпентер, Джош Хопкинс, Эмма Рэйн Лайл, Билл Билльонс, Лиа Хаттон Бисмор, Мэдисон Хорчер, Карен Б. Грир, Ронни Л. Клири, Аллен Хоган, Хлоя Грейс Льючик
О фильме:
Мама Сэм погибает в автоаварии, и девочка замыкается в себе и становится объектом насмешек одноклассников. Она собирает робота из набора, чтобы он защитил ее от злых языков и новой папиной подружки.

Страна: США, Jax Productions, Stay Relevant Productions
Продолжительность: 01:29:36
Перевод: Любительский (двухголосый закадровый) | HiWay Grope
Качество: WEB-DLRip 720р
Видео: h.264, 1280x720, 23.976 fps, ~2991 kbps, 0.135 bit/pixel
Аудио: AC3, 48 kHz, 2 ch, 192 Kbps
Субтитры: отсутствуют
Реклама: присутствует
Семпл
MediaInfo:
General
Unique ID : 158905251198728028046063621725535071371 (0x778C09C4E14895E07188174FC3FBEC8B)
Complete name : D:\Mail.Order.Monster.2018.720p.WEB-DLRip.HiWayGrope\Mail.Order.Monster.2018.720p.WEB-DLRip.HiWayGrope.mkv
Format : Matroska
Format version : Version 4 / Version 2
File size : 1.99 GiB
Duration : 1 h 29 min
Overall bit rate mode : Variable
Overall bit rate : 3 185 kb/s
Encoded date : UTC 2018-12-05 20:52:58
Writing application : mkvmerge v25.0.0 ('Prog Noir') 64-bit
Writing library : libebml v1.3.6 + libmatroska v1.4.9
Video
ID : 1
Format : AVC
Format/Info : Advanced Video Codec
Format profile : High@L5
Format settings : CABAC / 4 Ref Frames
Format settings, CABAC : Yes
Format settings, RefFrames : 4 frames
Codec ID : V_MPEG4/ISO/AVC
Duration : 1 h 29 min
Bit rate mode : Variable
Bit rate : 2 991 kb/s
Maximum bit rate : 12.0 Mb/s
Width : 1 280 pixels
Height : 720 pixels
Display aspect ratio : 16:9
Frame rate mode : Constant
Frame rate : 23.976 (24000/1001) FPS
Standard : NTSC
Color space : YUV
Chroma subsampling : 4:2:0
Bit depth : 8 bits
Scan type : Progressive
Bits/(Pixel*Frame) : 0.135
Stream size : 1.87 GiB (94%)
Language : English
Default : Yes
Forced : No
Color range : Limited
Color primaries : BT.709
Transfer characteristics : BT.709
Matrix coefficients : BT.709
Audio
ID : 2
Format : AC-3
Format/Info : Audio Coding 3
Codec ID : A_AC3
Duration : 1 h 29 min
Bit rate mode : Constant
Bit rate : 192 kb/s
Channel(s) : 2 channels
Channel positions : Front: L R
Sampling rate : 48.0 kHz
Frame rate : 31.250 FPS (1536 SPF)
Bit depth : 16 bits
Compression mode : Lossy
Stream size : 123 MiB (6%)
Language : Russian
Service kind : Complete Main
Default : Yes
Forced : No
Скриншоты
Релиз от: HiWay Grope
[Профиль] [ЛС]
Показать сообщения:    
Ответить на тему

Текущее время: 11-Дек 11:08

Часовой пояс: UTC + 3



Вы не можете начинать темы
Вы не можете отвечать на сообщения
Вы не можете редактировать свои сообщения
Вы не можете удалять свои сообщения
Вы не можете голосовать в опросах
Вы не можете прикреплять файлы к сообщениям
Вы не можете скачивать файлы