Девятый район / The Nth Ward [2017, Триллер, Драма, WEB-DLRip | HiWay Grope]

Ответить на тему
 
Автор Сообщение

Grandfather61 ®

Пол: Не указан

Стаж: 7 месяцев 26 дней

Сообщений: 375

Создавать темы 06-Дек-2018 12:52

[Цитировать]


Название: Девятый район
Оригинальное название: The Nth Ward
Год выхода: 2017
Жанр: Триллер, драма
Режиссер: Камилль Браун
В ролях: Джульетт Беннетт, Джеймс Уорд, Чарльз Блэк, Кристин Хамид, Гленн Маджи, Грегори Альбрехт, Лен Кассамас, Моника Лосон, Питер Джейсон, Хэтти М. Лемон
О фильме:
Сотрудницу Инженерных войск США отправляют в Новый Орлеан после урагана для оценки повреждений. Непонятные происшествия и исчезновения выводят ее на след, связанный с политическим обманом и магией вуду.

Страна: США
Продолжительность: 01:28:01
Перевод: Любительский (двухголосый закадровый) | HiWay Grope
Качество: WEB-DLRip
Видео: XviD, 720x400 23.976 fps, ~1803 kbps, 0.26 bit/pixel
Аудио: AC3, 48 kHz, 2 ch, 192 Kbps
Субтитры: отсутствуют
Реклама: присутствует
Семпл
MediaInfo:
General
Complete name : D:\The.Nth.Ward.2017.WEBRip.HiWayGrope\The.Nth.Ward.2017.WEBRip.HiWayGrope.avi
Format : AVI
Format/Info : Audio Video Interleave
Format profile : OpenDML
File size : 1.23 GiB
Duration : 1 h 28 min
Overall bit rate : 2 002 kb/s
Writing application : Lavf57.71.100
Video
ID : 0
Format : MPEG-4 Visual
Format profile : Advanced Simple@L5
Format settings, BVOP : No
Format settings, QPel : No
Format settings, GMC : No warppoints
Format settings, Matrix : Default (H.263)
Codec ID : XVID
Codec ID/Hint : XviD
Duration : 1 h 28 min
Bit rate : 1 797 kb/s
Width : 720 pixels
Height : 400 pixels
Display aspect ratio : 16:9
Frame rate : 23.976 (24000/1001) FPS
Color space : YUV
Chroma subsampling : 4:2:0
Bit depth : 8 bits
Scan type : Progressive
Compression mode : Lossy
Bits/(Pixel*Frame) : 0.260
Stream size : 1.11 GiB (90%)
Writing library : XviD 67
Audio
ID : 1
Format : AC-3
Format/Info : Audio Coding 3
Codec ID : 2000
Duration : 1 h 28 min
Bit rate mode : Constant
Bit rate : 192 kb/s
Channel(s) : 2 channels
Channel positions : Front: L R
Sampling rate : 48.0 kHz
Frame rate : 31.250 FPS (1536 SPF)
Bit depth : 16 bits
Compression mode : Lossy
Stream size : 121 MiB (10%)
Alignment : Aligned on interleaves
Interleave, duration : 32 ms (0.77 video frame)
Service kind : Complete Main
Скриншоты
Релиз от: HiWay Grope
[Профиль] [ЛС]
Показать сообщения:    
Ответить на тему

Текущее время: 11-Дек 11:08

Часовой пояс: UTC + 3



Вы не можете начинать темы
Вы не можете отвечать на сообщения
Вы не можете редактировать свои сообщения
Вы не можете удалять свои сообщения
Вы не можете голосовать в опросах
Вы не можете прикреплять файлы к сообщениям
Вы не можете скачивать файлы