Багровая мята / Peppermint (Пьер Морель / Pierre Morel ) [2018, США, Боевик, триллер, драма, WEB-DL 1080p]

Ответить на тему
 
Автор Сообщение

Mithas204 ®

Пол: Мужской

Стаж: 8 лет 11 месяцев

Сообщений: 13871

Откуда: Душанбе, Курган-Тюбе

Создавать темы 05-Дек-2018 07:35

[Цитировать]

Багровая мята / Peppermint - Производство: США / Huayi Brothers, Lakeshore Entertainment, STXfilms
Жанр: Боевик, триллер, драма
Режиссер: Пьер Морель
Актеры: Дженнифер Гарнер, Джон Галлахер мл., Джон Ортис, Хуан Пабло Раба, Энни Айлонзех, Джефф Хефнер, Кэйли Флеминг, Эдди Шин, Метод Мэн, Тайсон Риттер
Описание:
Когда система закрывает глаза на убийство ее семьи, она решает вершить справедливость сама: очистить город от преступников и продажных полицейских, чтобы отомстить за любимых. Ведь месть — это блюдо, которое подают холодным. Холодным, как мороженое со вкусом мяты, которое так любила ее единственная дочь. 
Возраст: 18+ (зрителям, достигшим 18 лет. запрещено для детей)
Рейтинг MPAA: R (лицам до 17 лет обязательно присутствие взрослого)
Дата мировой премьеры: 6 сентября 2018
Дата премьеры в России: 13 сентября 2018
Цифровой релиз: 3 декабря 2018
Продолжительность: 01:41:37
Качество видео: WEB-DL
Перевод: Дублированный (iTunes)
Субтитры: Английские (SDH)
Видео: AVC/H.264, 1912x800, ~4569 Kbps
Аудио #1: AC3, 6 ch, 384 Kbps - Русский
Аудио #2: AC3, 6 ch, 384 Kbps - Английский
MediaInfo:
Общее
Уникальный идентификатор : 9173154944739037563821036496875505400 (0x6E6AF7503D91262F83981D618F146F8)
Полное имя : E:\NNM\Багровая мята\Peppermint 2018 WEB-DL 1080p-LQ.mkv
Формат : Matroska
Версия формата : Version 4 / Version 2
Размер файла : 3,79 Гбайт
Продолжительность : 1 ч. 41 м.
Общий поток : 5339 Кбит/сек
Название фильма : Peppermint 2018 from селезень
Дата кодирования : UTC 2018-12-02 20:17:56
Программа кодирования : mkvmerge v29.0.0 ('Like It Or Not') 64-bit
Библиотека кодирования : libebml v1.3.6 + libmatroska v1.4.9
Видео
Идентификатор : 1
Формат : AVC
Формат/Информация : Advanced Video Codec
Профиль формата : High@L4
Настройки формата : CABAC / 5 Ref Frames
Параметр CABAC формата : Да
Параметр RefFrames формата : 5 кадров
Идентификатор кодека : V_MPEG4/ISO/AVC
Продолжительность : 1 ч. 41 м.
Битрейт : 4569 Кбит/сек
Ширина : 1912 пикселей
Высота : 800 пикселей
Соотношение сторон : 2,40:1
Режим частоты кадров : Постоянный
Частота кадров : 23,976 (23976/1000) кадра/сек
Цветовое пространство : YUV
Субдискретизация насыщенности : 4:2:0
Битовая глубина : 8 бит
Тип развёртки : Прогрессивная
Бит/(Пиксели*Кадры) : 0.125
Размер потока : 3,24 Гбайт (86%)
Язык : English
Default : Да
Forced : Нет
Цветовой диапазон : Limited
Основные цвета : BT.709
Характеристики трансфера : BT.709
Коэффициенты матрицы : BT.709
Аудио #1
Идентификатор : 2
Формат : AC-3
Формат/Информация : Audio Coding 3
Идентификатор кодека : A_AC3
Продолжительность : 1 ч. 41 м.
Вид битрейта : Постоянный
Битрейт : 384 Кбит/сек
Каналы : 6 каналов
Расположение каналов : Front: L C R, Side: L R, LFE
Частота : 48,0 КГц
Частота кадров : 31,250 кадров/сек (1536 SPF)
Битовая глубина : 16 бит
Метод сжатия : С потерями
Задержка видео : -42 мс.
Размер потока : 279 Мбайт (7%)
Заголовок : iTunes
Язык : Russian
ServiceKind/String : Complete Main
Default : Да
Forced : Да
Аудио #2
Идентификатор : 3
Формат : AC-3
Формат/Информация : Audio Coding 3
Идентификатор кодека : A_AC3
Продолжительность : 1 ч. 41 м.
Вид битрейта : Постоянный
Битрейт : 384 Кбит/сек
Каналы : 6 каналов
Расположение каналов : Front: L C R, Side: L R, LFE
Частота : 48,0 КГц
Частота кадров : 31,250 кадров/сек (1536 SPF)
Битовая глубина : 16 бит
Метод сжатия : С потерями
Задержка видео : -42 мс.
Размер потока : 279 Мбайт (7%)
Заголовок : Original
Язык : English
ServiceKind/String : Complete Main
Default : Нет
Forced : Нет
Текст
Идентификатор : 4
Формат : UTF-8
Идентификатор кодека : S_TEXT/UTF8
Идентификатор кодека/Информация : UTF-8 Plain Text
Продолжительность : 1 ч. 40 м.
Битрейт : 52 бит/сек
ElementCount : 1305
Размер потока : 38,9 Кбайт (0%)
Заголовок : SDH
Язык : English
Default : Нет
Forced : Нет
Меню
00:00:00.000 : en:1
00:11:48.000 : en:2
00:22:54.000 : en:3
00:37:40.000 : en:4
00:52:25.000 : en:5
01:02:43.000 : en:6
01:14:12.000 : en:7
01:25:05.000 : en:8
01:34:40.000 : en:9
-Скриншоты:
[Профиль] [ЛС]
Показать сообщения:    
Ответить на тему

Текущее время: 11-Дек 11:08

Часовой пояс: UTC + 3



Вы не можете начинать темы
Вы не можете отвечать на сообщения
Вы не можете редактировать свои сообщения
Вы не можете удалять свои сообщения
Вы не можете голосовать в опросах
Вы не можете прикреплять файлы к сообщениям
Вы не можете скачивать файлы