Игры хакеров: Возвращение / Hacker's Game Redux (2018) WEBRip | L2

Ответить на тему
 
Автор Сообщение

Grandfather61 ®

Пол: Не указан

Стаж: 7 месяцев 3 дня

Сообщений: 317

Создавать темы 08-Ноя-2018 12:42

[Цитировать]


Информация о фильме
Название: Игры хакеров: Возвращение
Оригинальное название: Hacker's Game Redux
Год выхода: 2018
Жанр: Триллер
Режиссер: Сирил Морин
В ролях: Пом Клементьефф, Алена фон Строхейм, Сиркус-Шалевски, Гайла Джонсон, Росс Батлер, Тед Мэттисон, Крис Шелленгер, Кинг Орба
О фильме:
Сойан - хакер, работающий на компанию, которую до этого взломал. Эта онлайн-фирма по безопасности проводит скрытые действия для высококлассных клиентов по всему миру. Луис - кибер-детектив, она расследует военные преступления для правозащитной организации. Она одержима истиной. Луис и Сойан находят связь, но Сойан должен защитить того же торговца оружием, которого Луис хочет поймать. Какова реальная цель Сойана? Между Луис и Сойан возникает опасный роман. Нахоясь в виртуальном мире, готовы ли Сойан и Луис рискнуть всем ради настоящей любви?

Страна: США, Media in Sync
Продолжительность: 01:29:37
Перевод: Любительский (двухголосый закадровый) | HiWay Grope
Файл
Кодек: XviD
Качество: WEBRip
Видео: 720x304, 23.976 fps, ~1778 kbps, 0.34 bit/pixel
Звук:
Аудио rus: AC3, 48 kHz, 6 ch, 256 Kbps
Субтитры: отсутствуют
Реклама: присутствует
Семпл
MediaInfo:
General
Complete name : D:Hackers.Game.Redux.2018.WEBRip.HiWayGropeHackers.Game.Redux.2018.WEBRip.HiWayGrope.avi
Format : AVI
Format/Info : Audio Video Interleave
Format profile : OpenDML
File size : 1.28 GiB
Duration : 1 h 29 min
Overall bit rate : 2 041 kb/s
Writing application : Lavf57.71.100
Video
ID : 0
Format : MPEG-4 Visual
Format profile : Advanced Simple@L5
Format settings : BVOP1
Format settings, BVOP : 1
Format settings, QPel : No
Format settings, GMC : No warppoints
Format settings, Matrix : Default (H.263)
Codec ID : XVID
Codec ID/Hint : XviD
Duration : 1 h 29 min
Bit rate : 1 773 kb/s
Width : 720 pixels
Height : 304 pixels
Display aspect ratio : 2.35:1
Frame rate : 23.976 (24000/1001) FPS
Color space : YUV
Chroma subsampling : 4:2:0
Bit depth : 8 bits
Scan type : Progressive
Compression mode : Lossy
Bits/(Pixel*Frame) : 0.338
Stream size : 1.11 GiB (87%)
Writing library : XviD 67
Audio
ID : 1
Format : AC-3
Format/Info : Audio Coding 3
Codec ID : 2000
Duration : 1 h 29 min
Bit rate mode : Constant
Bit rate : 256 kb/s
Channel(s) : 6 channels
Channel positions : Front: L C R, Side: L R, LFE
Sampling rate : 48.0 kHz
Frame rate : 31.250 FPS (1536 SPF)
Bit depth : 16 bits
Compression mode : Lossy
Stream size : 164 MiB (13%)
Alignment : Aligned on interleaves
Interleave, duration : 32 ms (0.77 video frame)
Service kind : Complete Main
Скриншоты
Релиз от: HiWay Grope
[Профиль] [ЛС]
Показать сообщения:    
Ответить на тему

Текущее время: 18-Ноя 18:32

Часовой пояс: UTC + 3



Вы не можете начинать темы
Вы не можете отвечать на сообщения
Вы не можете редактировать свои сообщения
Вы не можете удалять свои сообщения
Вы не можете голосовать в опросах
Вы не можете прикреплять файлы к сообщениям
Вы не можете скачивать файлы