Убийца 2. Против всех / Sicario: Day of the Soldado (2018) WEBRip [H.264/1080p-LQ] [AVO]

Ответить на тему
 
Автор Сообщение

Mithas204 ®

Пол: Мужской

Стаж: 8 лет 10 месяцев

Сообщений: 13762

Откуда: Душанбе, Курган-Тюбе

Создавать темы 16-Сен-2018 08:36

[Цитировать]

Убийца 2. Против всех / Sicario: Day of the Soldado - Производство: США, Италия, Black Label Media,Rai Cinema,Thunder Road Pictures
Жанр: Боевик, Триллер, Драма, Криминал
Режиссер: Стефано Соллима
Актеры: Бенисио Дель Торо, Джош Бролин, Изабела Монер, Джеффри Донован, Кэтрин Кинер, Мануэль Рульфо, Мэттью Модайн, Шей Уигэм, Элиас Гарза, Ховард Фергюсон мл.
Описание:
Обстановка на американо-мексиканской границе накаляется, когда наркокартели начинают переправлять в США террористов. Чтобы дать им отпор федеральный агент Мэтт Грейвер вынужден вновь объединиться с не самым надежным напарником — Алехандро.
 
[imdb]tt5052474[/imdb]
Возраст: 18+ (зрителям, достигшим 18 лет. запрещено для детей)
Рейтинг MPAA: R (лицам до 17 лет обязательно присутствие взрослого)
Дата мировой премьеры: 27 июня 2018
Дата российской премьеры: 28 июня 2018
Релиз от: BadBajo
Продолжительность: 02:02:23
Качество видео: WEBRip
Перевод: Авторский (одноголосый, закадровый) - А.Важенин (BadBajo)
Озвучка / Автор перевода: BadBajo
Субтитры: Английские (отключаемые)
Видео: AVC/H.264, 1920х800, ~4 926 Kbps
Аудио: AC3, 6 ch, 640 Kbps l Русский (BadBajo)
Аудио: AC3, 6 ch, 640 Kbps l Английский
Mediainfo:
General
Unique ID : 308034645076987727439458376008504529367 (0xE7BD508F47212DD5FFED5594385551D7)
Complete name : \Sicario.Day.of.the.Soldado.2018.1080p.AMZN.WEBRip.DD5.1.x264_rus_BadBajo.mkv
Format : Matroska
Format version : Version 4 / Version 2
File size : 5.31 GiB
Duration : 2 h 2 min
Overall bit rate : 6 208 kb/s
Movie name : Sicario.Day.of.the.Soldado.2018.1080p.AMZN.WEBRip.DD5.1.x264_rus_BadBajo
Encoded date : UTC 2018-09-12 03:55:38
Writing application : mkvmerge v20.0.0 ('I Am The Sun') 64-bit
Writing library : libebml v1.3.5 + libmatroska v1.4.8
Cover : Yes
Attachments : cover.jpg
Video
ID : 1
Format : AVC
Format/Info : Advanced Video Codec
Format profile : High@L4
Format settings : CABAC / 4 Ref Frames
Format settings, CABAC : Yes
Format settings, ReFrames : 4 frames
Codec ID : V_MPEG4/ISO/AVC
Duration : 2 h 2 min
Bit rate : 4 926 kb/s
Width : 1 920 pixels
Height : 800 pixels
Display aspect ratio : 2.40:1
Frame rate mode : Constant
Frame rate : 23.976 (24000/1001) FPS
Color space : YUV
Chroma subsampling : 4:2:0
Bit depth : 8 bits
Scan type : Progressive
Bits/(Pixel*Frame) : 0.134
Stream size : 4.21 GiB (79%)
Title : Sicario.Day.of.the.Soldado.2018.1080p.AMZN.WEBRip.DD5.1.x264-FGT
Language : English
Default : Yes
Forced : No
Color range : Limited
Color primaries : BT.709
Transfer characteristics : BT.709
Matrix coefficients : BT.709
Audio #1
ID : 2
Format : AC-3
Format/Info : Audio Coding 3
Codec ID : A_AC3
Duration : 2 h 2 min
Bit rate mode : Constant
Bit rate : 640 kb/s
Channel(s) : 6 channels
Channel positions : Front: L C R, Side: L R, LFE
Sampling rate : 48.0 kHz
Frame rate : 31.250 FPS (1536 SPF)
Bit depth : 16 bits
Compression mode : Lossy
Stream size : 560 MiB (10%)
Title : Sicario.Day.of.the.Soldado.2018.1080p.AC3_rus_BadBajo
Language : Russian
Service kind : Complete Main
Default : Yes
Forced : Yes
Audio #2
ID : 3
Format : AC-3
Format/Info : Audio Coding 3
Codec ID : A_AC3
Duration : 2 h 2 min
Bit rate mode : Constant
Bit rate : 640 kb/s
Channel(s) : 6 channels
Channel positions : Front: L C R, Side: L R, LFE
Sampling rate : 48.0 kHz
Frame rate : 31.250 FPS (1536 SPF)
Bit depth : 16 bits
Compression mode : Lossy
Stream size : 560 MiB (10%)
Title : Sicario.Day.of.the.Soldado.2018.1080p.AC3_eng
Language : English
Service kind : Complete Main
Default : No
Forced : No
Text
ID : 4
Format : UTF-8
Codec ID : S_TEXT/UTF8
Codec ID/Info : UTF-8 Plain Text
Duration : 2 h 1 min
Bit rate : 32 b/s
Count of elements : 1176
Stream size : 29.1 KiB (0%)
Language : English
Default : No
Forced : No
"Дополнительная информация:"
Общая граница между США и Мексикой составляет 3200 км, которая довольно условна. Там нет ни колючей проволоки и пограничников с собаками. С американской стороны несколько лет назад начали постройку стены, но она не была достроена до конца. Вдоль границы ездит пограничный патруль, летают вертолеты в поисках нелегалов и установлены камеры видеонаблюдения. Одна из причин, почему выгодно держать границу открытой — это наркоторговля. Через границу переправляются тонны наркотиков из Мексики в США, крутятся миллионы долларов по обе стороны границы.
Вдоль границы с мексиканской стороны стоят несколько сотен гостевых домиков и схронов. Под великой недостроенной стеной мексиканцы вырыли множество подземных переходов. С мексиканской стороны переправка людей в США поставлена на коммерческую основу: каждую группу переводит через границу опытный проводник. Группа из 15−20 человек нанимает такого проводника. Потом все организованно собираются в «доме для гостей» и ожидают благоприятных условий для перехода. После пересечения границы проводник отчаливает обратно, а группа на свой страх и риск начинает путешествие уже по американской территории. Прогулку по раскаленной пустыне приятной не назовешь. В Аризоне ежегодно находят от 150 до 200 трупов мексиканцев, умерших от жары и жажды в пустыне Сонора.
Приглашаю всех в мою группу в контакте
-Скриншоты:
Дополнительные скриншоты:
[Профиль] [ЛС]

Создавать темы 06-Окт-2018 14:45 (спустя 20 дней)

Топик был перенесен из форума UHD/FHD/HD/DVD/3D в форум Архив
Mithas204
 
Показать сообщения:    
Ответить на тему

Текущее время: 22-Окт 05:47

Часовой пояс: UTC + 3



Вы не можете начинать темы
Вы не можете отвечать на сообщения
Вы не можете редактировать свои сообщения
Вы не можете удалять свои сообщения
Вы не можете голосовать в опросах
Вы не можете прикреплять файлы к сообщениям
Вы не можете скачивать файлы