Женщины и порой мужчины / Women... and Sometimes Men (2018) WEBRip 720p | L2

Ответить на тему
 
Автор Сообщение

Grandfather61 ®

Пол: Не указан

Стаж: 5 месяцев 6 дней

Сообщений: 153

Создавать темы 13-Сен-2018 18:52

[Цитировать]


Информация о фильме
Название: Женщины и порой мужчины
Оригинальное название: Women... and Sometimes Men
Год выхода: 2018
Жанр: Драма, мелодрама
Режиссер: Лесли Деметре
В ролях: Линдси МакКеон, Мэлоун Томас, Таша Амес, Бонни Свеншонис, Паула Россман, Эйб Голдфарб, Джеймс К. Фулатер, Лесли Деметре, Никки Лоу, Сержи Роблз и другие
О фильме:
У Сары есть нерешенные вопросы из-за которых, она отменяет свадьбу с женихом. Когда-то у нее были мимолетные отношения с женщиной в далеком колледже, и вот она снова ищет это чувство. Как ей прикоснуться к женщине, и не отказываясь при этом от мужчин? Этот вопрос втягивает Сару в путешествие полное самопознания, сексуального пробуждения, красивых женщин, а порой и мужчин.

Страна: США,Unknown Works
Продолжительность: 01:27:23
Перевод: Любительский (двухголосый закадровый) | HiWay Grope
Файл
Кодек: MPEG-4 AVC/x.264
Качество: WEBRip 720p
Видео: 1280x536, 23.976 fps, ~2939 kbps, 0.179 bit/pixel
Звук:
Аудио rus: AC3, 48 kHz, 6 ch, 384 Kbps
Субтитры: отсутствуют
Реклама: присутствует
Семпл
MediaInfo:
General
Unique ID : 27347481245113001762155621716302849220 (0x1492EEECF7F3023EF868C334D6D964C4)
Complete name : D:Women.and.Sometimes.Men.2018.720p.WEBRip.HiWayGropeWomen.and.Sometimes.Men.2018.720p.WEBRip.HiWayGrope.mkv
Format : Matroska
Format version : Version 4 / Version 2
File size : 2.03 GiB
Duration : 1 h 27 min
Overall bit rate : 3 325 kb/s
Encoded date : UTC 2018-09-13 15:33:10
Writing application : mkvmerge v25.0.0 ('Prog Noir') 64-bit
Writing library : libebml v1.3.6 + libmatroska v1.4.9
Video
ID : 1
Format : AVC
Format/Info : Advanced Video Codec
Format profile : Main@L3.1
Format settings : CABAC / 4 Ref Frames
Format settings, CABAC : Yes
Format settings, RefFrames : 4 frames
Codec ID : V_MPEG4/ISO/AVC
Duration : 1 h 27 min
Bit rate : 2 939 kb/s
Width : 1 280 pixels
Height : 536 pixels
Display aspect ratio : 2.40:1
Frame rate mode : Constant
Frame rate : 23.976 (24000/1001) FPS
Standard : NTSC
Color space : YUV
Chroma subsampling : 4:2:0
Bit depth : 8 bits
Scan type : Progressive
Bits/(Pixel*Frame) : 0.179
Stream size : 1.79 GiB (88%)
Language : English
Default : Yes
Forced : No
Color range : Limited
Color primaries : BT.601 NTSC
Transfer characteristics : BT.601
Matrix coefficients : BT.601
Audio
ID : 2
Format : AC-3
Format/Info : Audio Coding 3
Codec ID : A_AC3
Duration : 1 h 27 min
Bit rate mode : Constant
Bit rate : 384 kb/s
Channel(s) : 6 channels
Channel positions : Front: L C R, Side: L R, LFE
Sampling rate : 48.0 kHz
Frame rate : 31.250 FPS (1536 SPF)
Bit depth : 16 bits
Compression mode : Lossy
Stream size : 240 MiB (12%)
Language : Russian
Service kind : Complete Main
Default : Yes
Forced : No
Скриншоты
Релиз от: HiWay Grope
[Профиль] [ЛС]
Показать сообщения:    
Ответить на тему

Текущее время: 21-Сен 15:59

Часовой пояс: UTC + 3



Вы не можете начинать темы
Вы не можете отвечать на сообщения
Вы не можете редактировать свои сообщения
Вы не можете удалять свои сообщения
Вы не можете голосовать в опросах
Вы не можете прикреплять файлы к сообщениям
Вы не можете скачивать файлы