Универ. Новая общага / Сезон: 15 / Серии: 1-18 из 18 + Фильм о Фильме (Константин Колесов) Финальный сезон [2018, комедия, HDTVRip 720p]

Ответить на тему
 
Автор Сообщение

Mithas204 ®

Пол: Мужской

Стаж: 8 лет 11 месяцев

Сообщений: 13800

Откуда: Душанбе, Курган-Тюбе

Создавать темы 04-Сен-2018 06:53

[Цитировать]

Универ. Новая общага
Год выпуска: 2018
Производство: "Комеди Клаб продакшн"
Жанр: комедия
Продолжительность: ~00:24:00 серия
Субтитры: нет
Режиссёр: Константин Колесов
В ролях: Арарат Кещян, Александр Стекольников, Станислав Ярушин, Анна Кузина, Анна Хилькевич, Константин Шелягин, Григорий Кокоткин, Елена Валюшкина, Сергей Пиоро, Сергей Мурзин
Описание: Финальный сезон сериала «Универ» стартует на ТНТ 3 сентября в 20:30. Ситком завершится четверной свадьбой и неожиданным возвращением старых героев. Первая серия «Универа» вышла в эфир ТНТ в 2008 году, когда Дима Билан выиграл «Евровидение», сборная России по хоккею — чемпионат мира, а «Зенит» — Кубок УЕФА. Ни о Монеточке, ни о Гречке, ни о Гнойном никто тогда и не догадывался. Выражения из ситкома разлетелись на цитаты (слово «мемы» тогда ещё не было так заразно): «пипец», «потеря потерь», «блин блинский» и «крутяк». Песня Кузи «Шняга шняжная» стала негласным гимном прекрасной студенческой жизни. «Универ» ширился, герои взрослели, влюблялись и расставались, уходили и возвращались, учились и тусовались. И теперь настало время попрощаться с ними..Реклама: Нет.
 
Sample
Качество: HDTVRip 720p - Nikolspup
Формат: MKV
Видео кодек: H.264
Аудио кодек: AC3
Видео: MPEG4 AVC Video, H264, 16:9, 1280x720, 25 fps, ~4000 kbps, 0.174 bit/pixel
Аудио: AC3 Dolby Digital, 48 kHz, 2/0 (L,R) ch, 192 kbp
Внимание! Раздача ведётся путём добавления новых серий
[font-sans1]Раздача ведётся путём добавления новых серий, при каждом добавлении создаётся новый торрент. Чтобы начать докачку новой серии, пользователям необходимо сделать следующее:
- Остановить скачивание.
- Удалить старый торрент у себя из клиента (старые серии удалять не надо).
- Скачать новый торрент и запустить его у себя в клиенте вместо старого, при этом указать клиенту путь в старую папку куда и должно происходить скачивание новых серий.
Ваш клиент при этом должен произвести хеширование (проверку) старой папки (если не производит сам - помогите ему сделать это), и будет докачивать только те серии которых у вас ещё нет. Старые серии при этом не удаляются, а продолжают раздаваться!
Если вы уже удалили старые серии, то предотвратить повторную закачку старых серий можно, отжав галочку в соответствующих местах при запуске нового торрента. По возможности, желательно не удалять старые серии как можно дольше, чтобы релизер не столько продолжал раздавать старые серии, а смог сконцентрироваться на новых.[/font-sans1]
MI
General
Unique ID : 170683805792189436350703510071276378535 (0x80688158B36145629CF8CB13968E99A7)
Complete name : D:\Univer.Novaja.obwaga.15.sezon.2018.HDTVRip.(720p).Nikolspup\Univer.Novaja.obwaga.15.sezon.(01.seriya).2018.HDTVRip.(720p).Nikolspup.mkv
Format : Matroska
Format version : Version 4 / Version 2
File size : 734 MiB
Duration : 24 min 27 s
Overall bit rate : 4 194 kb/s
Encoded date : UTC 2018-09-03 19:28:22
Writing application : mkvmerge v7.8.0 ('River Man') 32bit built on Mar 27 2015 16:18:02
Writing library : libebml v1.3.1 + libmatroska v1.4.2
Video
ID : 1
Format : AVC
Format/Info : Advanced Video Codec
Format profile : High@L4.1
Format settings : CABAC / 9 Ref Frames
Format settings, CABAC : Yes
Format settings, ReFrames : 9 frames
Codec ID : V_MPEG4/ISO/AVC
Duration : 24 min 27 s
Bit rate : 4 000 kb/s
Width : 1 280 pixels
Height : 720 pixels
Display aspect ratio : 16:9
Frame rate mode : Constant
Frame rate : 25.000 FPS
Color space : YUV
Chroma subsampling : 4:2:0
Bit depth : 8 bits
Scan type : Progressive
Bits/(Pixel*Frame) : 0.174
Stream size : 700 MiB (95%)
Writing library : x264 core 146 r2538 121396c
Encoding settings : cabac=1 / ref=9 / deblock=1:-2:-1 / analyse=0x3:0x133 / me=umh / subme=9 / psy=1 / psy_rd=1.00:0.20 / mixed_ref=1 / me_range=32 / chroma_me=1 / trellis=2 / 8x8dct=1 / cqm=0 / deadzone=21,11 / fast_pskip=1 / chroma_qp_offset=-3 / threads=16 / lookahead_threads=8 / sliced_threads=0 / nr=0 / decimate=1 / interlaced=0 / bluray_compat=0 / constrained_intra=0 / bframes=11 / b_pyramid=2 / b_adapt=2 / b_bias=0 / direct=1 / weightb=1 / open_gop=0 / weightp=2 / keyint=250 / keyint_min=25 / scenecut=40 / intra_refresh=0 / rc=2pass / mbtree=0 / bitrate=4000 / ratetol=1.0 / qcomp=0.60 / qpmin=0 / qpmax=69 / qpstep=4 / cplxblur=20.0 / qblur=0.5 / ip_ratio=1.40 / pb_ratio=1.30 / aq=3:1.00
Default : No
Forced : No
Color range : Limited
Color primaries : BT.709
Transfer characteristics : BT.709
Matrix coefficients : BT.709
Audio
ID : 2
Format : AC-3
Format/Info : Audio Coding 3
Codec ID : A_AC3
Duration : 24 min 27 s
Bit rate mode : Constant
Bit rate : 192 kb/s
Channel(s) : 2 channels
Channel positions : Front: L R
Sampling rate : 48.0 kHz
Frame rate : 31.250 FPS (1536 SPF)
Bit depth : 16 bits
Compression mode : Lossy
Stream size : 33.6 MiB (5%)
Language : Russian
Service kind : Complete Main
Default : Yes
Forced : Yes
Скриншоты


Последний раз редактировалось: Mithas204 (2018-10-06 13:48), всего редактировалось 5 раз(а)
[Профиль] [ЛС]

Mithas204 ®

Пол: Мужской

Стаж: 8 лет 11 месяцев

Сообщений: 13800

Откуда: Душанбе, Курган-Тюбе

Создавать темы 05-Сен-2018 08:41 (спустя 1 день 1 час)

[Цитировать]

3 серия
[Профиль] [ЛС]

trampiko

Пол: Не указан

Стаж: 5 месяцев 5 дней

Сообщений: 5

Создавать темы 05-Сен-2018 17:25 (спустя 8 часов)

[Цитировать]

последний сезон? неужели труп мучать перестанут. Сериал давно себя изжил
[Профиль] [ЛС]

Mithas204 ®

Пол: Мужской

Стаж: 8 лет 11 месяцев

Сообщений: 13800

Откуда: Душанбе, Курган-Тюбе

Создавать темы 08-Сен-2018 17:48 (спустя 3 дня)

[Цитировать]

4 - 5
[Профиль] [ЛС]

Mithas204 ®

Пол: Мужской

Стаж: 8 лет 11 месяцев

Сообщений: 13800

Откуда: Душанбе, Курган-Тюбе

Создавать темы 12-Сен-2018 07:34 (спустя 3 дня)

[Цитировать]

6 -7
[Профиль] [ЛС]

Mithas204 ®

Пол: Мужской

Стаж: 8 лет 11 месяцев

Сообщений: 13800

Откуда: Душанбе, Курган-Тюбе

Создавать темы 14-Сен-2018 14:10 (спустя 2 дня 6 часов)

[Цитировать]

8 - 9
[Профиль] [ЛС]

Mithas204 ®

Пол: Мужской

Стаж: 8 лет 11 месяцев

Сообщений: 13800

Откуда: Душанбе, Курган-Тюбе

Создавать темы 21-Сен-2018 07:54 (спустя 6 дней)

[Цитировать]

10 -13
[Профиль] [ЛС]
Показать сообщения:    
Ответить на тему

Текущее время: 18-Ноя 16:18

Часовой пояс: UTC + 3



Вы не можете начинать темы
Вы не можете отвечать на сообщения
Вы не можете редактировать свои сообщения
Вы не можете удалять свои сообщения
Вы не можете голосовать в опросах
Вы не можете прикреплять файлы к сообщениям
Вы не можете скачивать файлы