(Rock) Александр Кутиков - Бесконечномгновенно - 2016 [FLAC, image +.cue, lossless]

Ответить на тему
 
Автор Сообщение

sergej644 ®

Пол: Мужской

Стаж: 6 месяцев 16 дней

Сообщений: 3

Откуда: Klaipeda

Создавать темы 22-Авг-2018 09:58

[Цитировать]

-Александр Кутиков - Бесконечномгновенно--
Год издания: 2016
Страна: Russia
Жанр: Rock
Продолжительность: 00:50:31-Лейбл издания: Sintez Records
Страна-выпуска диска: Russia
Номер по каталогу: SRCD 00116-Формат: FLAC
Битрейт аудио: Lossless
Тип рипа: image +.cue
Наличие сканов в содержимом раздачи: да
-
Трэклист

01. Всё так просто (4:04)
02. Родина моя (3:49)
03. Дорогой слов и откровений (4:54)
04. Одна (5:26)
05. Моя песня (Налей-ка, друг, мне) (3:51)
06. Снежок (5:03)
07. Другу (4:11)
08. Рыжий (3:34)
09. Сны декабря (3:38)
10. Лети, душа (3:20)
11. Дай помечтать (bonus track) (5:03)
12. Там будет победа (bonus track) (3:38)
-
Лог создания рипа
Exact Audio Copy V1.3 from 2. September 2016
EAC extraction logfile from 28. February 2018, 21:38
Александр Кутиков / Бесконечномгновенно
Used drive  : Optiarc DVD RW AD-7241S   Adapter: 1  ID: 0
Read mode               : Secure
Utilize accurate stream : Yes
Defeat audio cache      : Yes
Make use of C2 pointers : No
Read offset correction                      : 48
Overread into Lead-In and Lead-Out          : No
Fill up missing offset samples with silence : Yes
Delete leading and trailing silent blocks   : No
Null samples used in CRC calculations       : Yes
Used interface                              : Native Win32 interface for Win NT & 2000
Used output format : Internal WAV Routines
Sample format      : 44.100 Hz; 16 Bit; Stereo
TOC of the extracted CD
     Track |   Start  |  Length  | Start sector | End sector
    ---------------------------------------------------------
        1  |  0:00.00 |  4:03.40 |         0    |    18264
        2  |  4:03.40 |  3:48.60 |     18265    |    35424
        3  |  7:52.25 |  4:54.09 |     35425    |    57483
        4  | 12:46.34 |  5:26.13 |     57484    |    81946
        5  | 18:12.47 |  3:51.22 |     81947    |    99293
        6  | 22:03.69 |  5:03.13 |     99294    |   122031
        7  | 27:07.07 |  4:11.15 |    122032    |   140871
        8  | 31:18.22 |  3:34.24 |    140872    |   156945
        9  | 34:52.46 |  3:37.40 |    156946    |   173260
       10  | 38:30.11 |  3:20.03 |    173261    |   188263
       11  | 41:50.14 |  5:02.63 |    188264    |   210976
       12  | 46:53.02 |  3:37.49 |    210977    |   227300
Range status and errors
Selected range
     Filename F:\RAZDACHA\Александр Кутиков - Бесконечномгновенно.wav
     Peak level 98.0 %
     Extraction speed 4.0 X
     Range quality 100.0 %
     Test CRC D70A1CD3
     Copy CRC D70A1CD3
     Copy OK
No errors occurred
AccurateRip summary
Track  1  accurately ripped (confidence 1)  [E65C6DA5]  (AR v2)
Track  2  accurately ripped (confidence 1)  [E520C2D8]  (AR v2)
Track  3  accurately ripped (confidence 1)  [8E823BBE]  (AR v2)
Track  4  accurately ripped (confidence 1)  [784E1EFE]  (AR v2)
Track  5  accurately ripped (confidence 1)  [040047F0]  (AR v2)
Track  6  accurately ripped (confidence 1)  [AA707F72]  (AR v2)
Track  7  accurately ripped (confidence 1)  [F6786F43]  (AR v2)
Track  8  accurately ripped (confidence 1)  [71598FA8]  (AR v2)
Track  9  accurately ripped (confidence 1)  [AA2F6DB9]  (AR v2)
Track 10  accurately ripped (confidence 1)  [97D09F1D]  (AR v2)
Track 11  accurately ripped (confidence 1)  [EDE23BC6]  (AR v2)
Track 12  accurately ripped (confidence 1)  [6A44755F]  (AR v2)
All tracks accurately ripped
End of status report
Индексная карта (non-compilant .cue)
REM GENRE Rock
REM DATE 2016
REM DISCID 9E0BD60C
REM COMMENT ExactAudioCopy v1.3
PERFORMER "Александр Кутиков"
TITLE "Бесконечномгновенно"
FILE "Александр Кутиков - Бесконечномгновенно.flac" WAVE
  TRACK 01 AUDIO
    TITLE "Всё так просто"
    INDEX 01 00:00:00
  TRACK 02 AUDIO
    TITLE "Родина моя"
    INDEX 01 04:03:40
  TRACK 03 AUDIO
    TITLE "Дорогой слов и откровений"
    INDEX 01 07:52:25
  TRACK 04 AUDIO
    TITLE "Одна"
    INDEX 01 12:46:34
  TRACK 05 AUDIO
    TITLE "Моя песня (Налей-ка, друг, мне)"
    INDEX 01 18:12:47
  TRACK 06 AUDIO
    TITLE "Снежок"
    INDEX 01 22:03:69
  TRACK 07 AUDIO
    TITLE "Другу"
    INDEX 01 27:07:07
  TRACK 08 AUDIO
    TITLE "Рыжий"
    INDEX 01 31:18:22
  TRACK 09 AUDIO
    TITLE "Сны декабря"
    INDEX 01 34:52:46
  TRACK 10 AUDIO
    TITLE "Лети, душа"
    INDEX 01 38:30:11
  TRACK 11 AUDIO
    TITLE "Дай помечтать (bonus track)"
    INDEX 01 41:50:14
  TRACK 12 AUDIO
    TITLE "Там будет победа (bonus track)"
    INDEX 01 46:53:02
-
дополнительная информация:
Recorded At – Полифон, Mastered At – Abbey Road Studios.
Acoustic Guitar – Игорь Хомич
Acoustic Guitar, Vocals, Mixed By, Producer – Александр Кутиков
Backing Vocals – Екатерина Надареишвили
Bass – Николай Горенко
Drums – Дмитрий Кричевский
Guitar – Павел Титовец
Keyboards, Backing Vocals, Sound Fantasies – Николай Лёвочкин
Lyrics By – Александр Кутиков (tracks: 1, 9), Андрей Макаревич (tracks: 12), Вадим Демидов (tracks: 5), Владимир Ткаченко (tracks: 1, 2, 3, 4, 8, 9, 10), Маргарита Пушкина (tracks: 11), Ромарио (tracks: 6, 7)
Music By – Александр Кутиков (tracks: 1 to 12), Андрей Макаревич (tracks: 12)
--
[Профиль] [ЛС]
Показать сообщения:    
Ответить на тему

Текущее время: 21-Сен 16:00

Часовой пояс: UTC + 3



Вы не можете начинать темы
Вы не можете отвечать на сообщения
Вы не можете редактировать свои сообщения
Вы не можете удалять свои сообщения
Вы не можете голосовать в опросах
Вы не можете прикреплять файлы к сообщениям
Вы не можете скачивать файлы