Мерьем / Meryem / Серии: 21-30 (30) (Мустафа Шевки Доган / Mustafa Şevki Doğan) [2017-2018, Турция, Драма, WEBRip (720p)] russ sub

Ответить на тему
 
Автор Сообщение

banzay ®

Пол: Мужской

Стаж: 10 лет

Сообщений: 1488

Создавать темы 09-Авг-2018 22:32

[Цитировать]

Мерьем / Meryem Год выпуска: 2017-2018
Страна: Турция
Производство: TMC Film
Жанр: Драма
Серии (количество): 21-30 (30)
Продолжительность: ~ 2:12:00 / каждая серия
Субтитры: Русские, IndiTurk
Режиссёр: Мустафа Шевки Доган / Mustafa Şevki Doğan
В ролях: Фуркан Андич / Furkan Andıç – Саваш
Айча Айшин Туран / Ayça Ayşin Turan – Мерьем Акча
Джемаль Токташ / Cemal Toktaş - Прокурор Октай
Серенай Акташ / Serenay Aktaş – Комиссар Бурджу
Бестемсу Оздемир / Bestemsu Ozdemir
Ачейлья Топалоглу / Açelya Topaloğlu
Описание: Сериал "Мерьем" является ремейком корейской дорамы "Тайная любовь"
Мерьем девушка добродушная, всеми любимая, работает в придорожной станции, а в свободное от работы время помогает отцу в пекарне, печет хлеб. У Мерьем есть любимый – Прокурор Октай. Они планируют пожениться, строят планы на будущее. Однако всё меняется в тот миг, когда Октай совершает аварию и сбивает человека. Мерьем, готовая на всё ради любимого, берёт на себя ответственность за аварию и садится в тюрьму. После выхода из тюрьмы жизнь Мерьем меняется, соседи называют её убийцей, и на голову девушки падают немыслимые проблемы, так как Саваш, возлюбленный той сбитой девушки, желает отомстить за их разрушенные жизни...
Качество: WEBRip (720p)
Формат: MP4
Видео кодек: H.264
Аудио кодек: AAC
Видео: MPEG4 Video (H264) 1280x720 25fps 2066kbps
Аудио: AAC 44100Hz stereo 192kbps
Реклама:
Отсутствует
MI
General
Complete name : K:\Meryem.2017-2018.russ.sub.WEBRip720p\Meryem.s01.e21.2017.russ.sub.WEBRip720p.MP4
Format : MPEG-4
Format profile : Base Media
Codec ID : isom (isom/iso2/avc1/mp41)
File size : 2.33 GiB
Duration : 2 h 27 min
Overall bit rate mode : Constant
Overall bit rate : 2 264 kb/s
Writing application : Lavf57.83.100
Video
ID : 1
Format : AVC
Format/Info : Advanced Video Codec
Format profile : Main@L3.1
Format settings, CABAC : Yes
Format settings, ReFrames : 1 frame
Format settings, GOP : M=1, N=25
Codec ID : avc1
Codec ID/Info : Advanced Video Coding
Duration : 2 h 27 min
Bit rate mode : Constant
Bit rate : 2 067 kb/s
Width : 1 280 pixels
Height : 720 pixels
Display aspect ratio : 16:9
Frame rate mode : Constant
Frame rate : 25.000 FPS
Color space : YUV
Chroma subsampling : 4:2:0
Bit depth : 8 bits
Scan type : Progressive
Bits/(Pixel*Frame) : 0.090
Stream size : 2.13 GiB (91%)
Audio
ID : 2
Format : AAC
Format/Info : Advanced Audio Codec
Format profile : LC
Codec ID : 40
Duration : 2 h 27 min
Duration_LastFrame : -2 ms
Bit rate mode : Constant
Bit rate : 192 kb/s
Channel(s) : 2 channels
Channel positions : Front: L R
Sampling rate : 44.1 kHz
Frame rate : 43.066 FPS (1024 spf)
Compression mode : Lossy
Stream size : 202 MiB (8%)
Default : Yes
Alternate group : 1
Скриншоты


Последний раз редактировалось: banzay (2018-08-10 00:39), всего редактировалось 1 раз
[Профиль] [ЛС]

Ubaydulloev0399

Пол: Мужской

Стаж: 5 месяцев 4 дня

Сообщений: 6

Откуда: Бохтар(Курган-Тюбе)

Создавать темы 09-Авг-2018 22:59 (спустя 27 минут)

[Цитировать]

Рахмати калон акачон пусть вас хранит Аллах!
[Профиль] [ЛС]

Root_tj

Пол: Мужской

Стаж: 4 года 6 месяцев

Сообщений: 6680

Откуда: Khujand

Создавать темы 10-Авг-2018 07:17 (спустя 8 часов)

[Цитировать]

жалко без перевода)
[Профиль] [ЛС]
Показать сообщения:    
Ответить на тему

Текущее время: 14-Дек 14:31

Часовой пояс: UTC + 3



Вы не можете начинать темы
Вы не можете отвечать на сообщения
Вы не можете редактировать свои сообщения
Вы не можете удалять свои сообщения
Вы не можете голосовать в опросах
Вы не можете прикреплять файлы к сообщениям
Вы не можете скачивать файлы