Гоголь. Вий (2018) BDRip | Лицензия

Ответить на тему
 
Автор Сообщение

Zibak ®

Пол: Мужской

Стаж: 10 лет

Сообщений: 32617

Откуда: Aden

Создавать темы 29-Июл-2018 02:36

[Цитировать]


Информация о фильме
Название: Гоголь. Вий
Год выхода: 2018
Жанр: Детектив, приключения, драма
Страна: Россия
Перевод: Не требуется
Продолжительность: 01:39:13
Режиссер: Егор Баранов
В ролях: Александр Петров, Евгений Стычкин, Таисия Вилкова, Артем Ткаченко, Сергей Бадюк, Ян Цапник, Алексей Вертков, Марта Тимофеева, Юлия Франц, Ксения Разина и др.
О фильме: Писарь из Санкт-Петербурга Николай Гоголь бросает вызов загадочному тёмному Всаднику, который жестоко расправляется с девушками в окрестностях села Диканька. Собрав команду из местного полицейского, пьяницы-доктора, суеверного кузнеца и странствующего философа-экзорциста, Гоголь пытается заманить злодея в ловушку, но на его пути встает самое жуткое порождение нечистой силы — Вий, один взгляд которого способен высосать душу смертного. Неожиданно для себя Гоголь выясняет, что с потусторонними силами его связывают не только таинственные видения.

Файл
Формат: AVI
Качество: BDRip
Видео: Xvid, 720x304, ~1642 kbps, 24,000 fps
Звук: русский, AC3 5.1, 48 kHz, 448 kbps | Лицензия
Субтитры: нет
MI
General
Полное имя : F:TorrentGogolViyAVI.avi
Формат : AVI
Формат/Информация : Audio Video Interleave
Размер файла : 1.45 GiB
Продолжительность : 1 h 39 min
Общий поток : 2 099 kb/s
Библиотека кодирования : VirtualDub build 35491/release
Video
Идентификатор : 0
Формат : MPEG-4 Visual
Профиль формата : Advanced Simple@L5
Настройки формата : BVOP2 / Custom Matrix
Параметр BVOP формата : 2
Параметр QPel формата : No
Параметр GMC формата : No warppoints
Параметр матрицы формата : Custom
Идентификатор кодека : XVID
Идентификатор кодека/Подсказка : XviD
Продолжительность : 1 h 39 min
Битрейт : 1 642 kb/s
Ширина : 720 pixels
Высота : 304 pixels
Соотношение сторон : 2.35:1
Частота кадров : 24.000 FPS
Цветовое пространство : YUV
Субдискретизация насыщенности : 4:2:0
Битовая глубина : 8 bits
Тип развёртки : Progressive
Метод сжатия : Lossy
Бит/(Пиксели*Кадры) : 0.313
Размер потока : 1.14 GiB (78%)
Библиотека кодирования : XviD 67
Audio
Идентификатор : 1
Формат : AC-3
Формат/Информация : Audio Coding 3
Идентификатор кодека : 2000
Продолжительность : 1 h 39 min
Вид битрейта : Constant
Битрейт : 448 kb/s
Каналы : 6 channels
Расположение каналов : Front: L C R, Side: L R, LFE
Частота : 48.0 kHz
Частота кадров : 31.250 FPS (1536 SPF)
Битовая глубина : 16 bits
Метод сжатия : Lossy
Размер потока : 318 MiB (21%)
Выравнивание : Aligned on interleaves
Продолжительность промежутка : 42 ms (1.00 video frame)
Время предзагрузки промежутка : 512 ms
Скриншоты
[Профиль] [ЛС]

Root_tj

Пол: Мужской

Стаж: 4 года 6 месяцев

Сообщений: 6680

Откуда: Khujand

Создавать темы 28-Ноя-2018 18:07 (спустя 3 месяца 30 дней)

[Цитировать]

спс ака
[Профиль] [ЛС]
Показать сообщения:    
Ответить на тему

Текущее время: 14-Дек 14:31

Часовой пояс: UTC + 3



Вы не можете начинать темы
Вы не можете отвечать на сообщения
Вы не можете редактировать свои сообщения
Вы не можете удалять свои сообщения
Вы не можете голосовать в опросах
Вы не можете прикреплять файлы к сообщениям
Вы не можете скачивать файлы