Чемпионат Мира 2018. Финал. Франция - Хорватия + Церемония закрытия + Награждение (15.07.2018) HDTV [H.264/1080i-LQ]

Ответить на тему
 
Автор Сообщение

banzay ®

Пол: Мужской

Стаж: 10 лет

Сообщений: 1488

Создавать темы 17-Июл-2018 03:08

[Цитировать]

Чемпионат Мира 2018. Финал
Франция - Хорватия [H.264/1080i-LQ]
Церемония закрытия. Награждение
-
Телекомпания: Россия 1 HD
Жанр: Спорт. Футбол.
Описание:
15 июля 2018 года, воскресенье. 18:00 МСК
Стадион: Лужники (Москва, Россия) , вместимость: 84745
Главный судья: Нестор Питана (Аргентина). Ассистенты: Эрнан Майдана (Аргентина); Хуан Пабло Белатти (Аргентина)
Релиз от: Striker
Продолжительность: 02:49:18
Качество видео: HDTV
Язык: Русский (Владимир Стогниенко)
Субтитры: отсутствуют
Видео: AVC/H.264, 1920x1080, 25 fps, 10,7 Mbps
Аудио: MP2, 48 kHz, 2 ch, 192 Kbps
Mediainfo:
General
ID : 1 (0x1)
Complete name : D:\World.Cup.2018.Final.France-Croatia.HDTV.1080i.ts
Format : MPEG-TS
File size : 13.5 GiB
Duration : 2 h 49 min
Overall bit rate mode : Variable
Overall bit rate : 11.4 Mb/s
Video
ID : 206 (0xCE)
Menu ID : 20106 (0x4E8A)
Format : AVC
Format/Info : Advanced Video Codec
Format profile : High@L4
Format settings : CABAC / 4 Ref Frames
Format settings, CABAC : Yes
Format settings, ReFrames : 4 frames
Format settings, GOP : M=4, N=28
Codec ID : 27
Duration : 2 h 49 min
Bit rate : 10.7 Mb/s
Width : 1 920 pixels
Height : 1 080 pixels
Display aspect ratio : 16:9
Frame rate : 25.000 FPS
Standard : Component
Color space : YUV
Chroma subsampling : 4:2:0
Bit depth : 8 bits
Scan type : Interlaced
Scan type, store method : Separated fields
Scan order : Top Field First
Bits/(Pixel*Frame) : 0.206
Stream size : 12.6 GiB (93%)
Color range : Limited
Color primaries : BT.709
Transfer characteristics : BT.709
Matrix coefficients : BT.709
Audio
ID : 306 (0x132)
Menu ID : 20106 (0x4E8A)
Format : MPEG Audio
Format version : Version 1
Format profile : Layer 2
Codec ID : 3
Duration : 2 h 49 min
Bit rate mode : Constant
Bit rate : 192 kb/s
Channel(s) : 2 channels
Sampling rate : 48.0 kHz
Frame rate : 41.667 FPS (1152 SPF)
Compression mode : Lossy
Stream size : 232 MiB (2%)
Language : Russian

Скриншоты:
Все одноименные релизы в КлубеВремя раздачи: 24/7 (до появления первых 10 скачавших).
[Профиль] [ЛС]
Показать сообщения:    
Ответить на тему

Текущее время: 09-Дек 23:53

Часовой пояс: UTC + 3



Вы не можете начинать темы
Вы не можете отвечать на сообщения
Вы не можете редактировать свои сообщения
Вы не можете удалять свои сообщения
Вы не можете голосовать в опросах
Вы не можете прикреплять файлы к сообщениям
Вы не можете скачивать файлы