Зеленая Комната / Le Chambre de Verdure (2007) HDTVRip [H.264/1080i-LQ]

Ответить на тему
 
Автор Сообщение

banzay ®

Пол: Мужской

Стаж: 9 лет 7 месяцев

Сообщений: 1425

Создавать темы 09-Июл-2018 21:41

[Цитировать]

Зеленая Комната / Le Chambre de Verdure (2007) HDTVRip - Производство: Франция, Poligon Onz
Жанр: Документальный, флора, ландшафтный дизайн
Режиссер: Мадлен Кайяр
Описание:
Рядом с Лувром в сердце Парижа рождается новый городской сад. Разработка этого проекта поручена Жаку Вирцу. Чтобы узнать пейзажиста, нужно проникнуть в его произведения. Мы посетим 12 садов, созданных Вирцем в Европе.
Этот фильм будет интересен любителям и ценителям красивых парков, садов, лесов и т.д. Фильм в основном создан для отдыха от повседневной суеты.
Релиз от: rasimok
Продолжительность: 00:54:15
Качество видео: HDTVRip
Перевод: Двуголосый закадровый, профессиональный (Red Media)
Субтитры: отсутствуют
Видео: AVC/H.264, 1920x1080, ~8813 Kbps
Аудио: MP2, 2 ch, 192 Kbps
Mediainfo:
Общее
Идентификатор : 6 (0x6)
Полное имя : F:\КИНО\GreenRoom.ts
Формат : MPEG-TS
Размер файла : 3,59 Гбайт
Продолжительность : 54 м. 15 с.
Режим общего битрейта : Переменный
Общий поток : 9476 Кбит/сек
Видео
Идентификатор : 1500 (0x5DC)
Идентификатор меню : 1 (0x1)
Формат : AVC
Формат/Информация : Advanced Video Codec
Профиль формата : Main@L4
Настройки формата : CABAC / 4 Ref Frames
Параметр CABAC формата : Да
Параметр RefFrames формата : 4 кадра
Идентификатор кодека : 27
Продолжительность : 54 м. 14 с.
Битрейт : 8813 Кбит/сек
Ширина : 1920 пикселей
Высота : 1080 пикселей
Соотношение сторон : 16:9
Частота кадров : 25,000 кадров/сек
Стандарт вещания : Component
Цветовое пространство : YUV
Субдискретизация насыщенности : 4:2:0
Битовая глубина : 8 бит
Тип развёртки : Чересстрочная
Метод сохранения типа развёртки : Раздельные поля
Порядок развёртки : Верхнее поле первое
Бит/(Пиксели*Кадры) : 0.170
Размер потока : 3,34 Гбайт (93%)
Язык : English
Цветовой диапазон : Limited
Основные цвета : BT.709
Характеристики трансфера : BT.709
Коэффициенты матрицы : BT.709
Аудио
Идентификатор : 1510 (0x5E6)
Идентификатор меню : 1 (0x1)
Формат : MPEG Audio
Версия формата : Version 1
Профиль формата : Layer 2
Идентификатор кодека : 4
Продолжительность : 54 м. 15 с.
Вид битрейта : Постоянный
Битрейт : 192 Кбит/сек
Каналы : 2 канала
Частота : 48,0 КГц
Частота кадров : 41,667 кадра/сек (1152 SPF)
Метод сжатия : С потерями
Задержка видео : 25 мс.
Размер потока : 74,5 Мбайт (2%)
Язык : German
-Скриншоты:
Все одноименные релизы в КлубеВремя раздачи: с 18:00 до 23:00 (до появления первых 3-5 скачавших)
[Профиль] [ЛС]
Показать сообщения:    
Ответить на тему

Текущее время: 17-Июл 21:48

Часовой пояс: UTC + 3



Вы не можете начинать темы
Вы не можете отвечать на сообщения
Вы не можете редактировать свои сообщения
Вы не можете удалять свои сообщения
Вы не можете голосовать в опросах
Вы не можете прикреплять файлы к сообщениям
Вы не можете скачивать файлы