Универ. Новая общага / Сезон: 14 / Серии: 1-18 из 18 (Константин Колесов) [2018, комедия, SATRip]

Ответить на тему
 
Автор Сообщение

Mithas204 ®

Пол: Мужской

Стаж: 8 лет 9 месяцев

Сообщений: 13739

Откуда: Душанбе, Курган-Тюбе

Создавать темы 29-Июн-2018 07:10

[Цитировать]

Универ. Новая общага- Производство: Россия / "Комеди Клаб продакшн"
Жанр: комедия
Режиссер: Константин Колесов
Актеры: Арарат Кещян, Александр Стекольников, Станислав Ярушин, Анна Кузина, Анна Хилькевич, Константин Шелягин, Григорий Кокоткин, Елена Валюшкина, Сергей Пиоро, Сергей Мурзин и др.
Описание:
Универ» - больше, чем просто сериал. «Универ» - проверенный друг с отличным чувством юмора, сотнями готовых лайфхаков на все случаи жизни и хорошей долей самоиронии. За эти 10 лет некоторые из актрис сериала, снявшись обнаженными для мужских журналов, стали депутатами в Государственной думе, женами завидных иностранных миллионеров и самыми популярными инстаграмерами. Многие актеры обзавелись прекрасным потомством, а одна сериальная пара даже вдохновила авторов на создание отдельного спиноффа. Но главные герои нового сезона по-прежнему в отличной форме: Маша снимется в проекте 18+, Майкл получит крупное наследство, Антон найдет замену Кристине, а Валя поверит в себя и почувствует свою мужскую силу. Оставаться молодыми и дерзкими парней заставит еще один весомый аргумент: в общагу заселятся две новенькие героини – сестры-двойняшки Ника и Вика. 
Возраст: 16+ (зрителям, достигшим 16 лет)
Продолжительность: ~00:22:00 серия
Качество видео: SATRip
Видео: Xvid, 720x400 (16:9), ~1750 Kbps
Аудио: MP3, 2 ch, 192 Kbps
Mediainfo:
Video
ID : 0
Format : MPEG-4 Visual
Format profile : Advanced Simple@L5
Format settings : BVOP2
Format settings, BVOP : 2
Format settings, QPel : No
Format settings, GMC : No warppoints
Format settings, Matrix : Default (H.263)
Codec ID : XVID
Codec ID/Hint : XviD
Duration : 22 min 9 s
Bit rate : 1 750 kb/s
Width : 720 pixels
Height : 400 pixels
Display aspect ratio : 16:9
Frame rate : 25.000 FPS
Color space : YUV
Chroma subsampling : 4:2:0
Bit depth : 8 bits
Scan type : Progressive
Compression mode : Lossy
Bits/(Pixel*Frame) : 0.243
Stream size : 277 MiB (90%)
Writing library : XviD 1.2.1 (UTC 2008-12-04)
Audio
ID : 1
Format : MPEG Audio
Format version : Version 1
Format profile : Layer 3
Format settings : Joint stereo
Codec ID : 55
Codec ID/Hint : MP3
Duration : 22 min 9 s
Bit rate mode : Constant
Bit rate : 192 kb/s
Channel(s) : 2 channels
Sampling rate : 48.0 kHz
Frame rate : 41.667 FPS (1152 SPF)
Compression mode : Lossy
Stream size : 30.4 MiB (10%)
Alignment : Aligned on interleaves
Interleave, duration : 40 ms (1.00 video frame)
Interleave, preload duratio : 504 ms
Writing library : LAME3.99r
Encoding settings : -m j -V 4 -q 9 -lowpass 18.6 -b 192
-Скриншоты:
[Профиль] [ЛС]
Показать сообщения:    
Ответить на тему

Текущее время: 26-Сен 08:56

Часовой пояс: UTC + 3



Вы не можете начинать темы
Вы не можете отвечать на сообщения
Вы не можете редактировать свои сообщения
Вы не можете удалять свои сообщения
Вы не можете голосовать в опросах
Вы не можете прикреплять файлы к сообщениям
Вы не можете скачивать файлы