Парень как Джэйк / A Kid Like Jake (2018) WEBRip 720p | L2

Ответить на тему
 
Автор Сообщение

Grandfather61 ®

Пол: Не указан

Стаж: 6 месяцев 2 дня

Сообщений: 205

Создавать темы 13-Июн-2018 17:31

[Цитировать]


Информация о фильме
Название: Парень как Джэйк
Оригинальное название: A Kid Like Jake
Год выхода: 2018
Жанр: Драма
Режиссер: Сайлэс Ховард
В ролях: Приянка Чопра, Энн Дауд, Клер Дэйнс, Шонетт Рене Уилсон, Джим Парсонс, Октавия Спенсер, Эми Ландекер, Аасиф Мандви, Джулия Тейлор Росс, Лев Джеймс Дэвис и другие
О фильме:
Четырёхлетний Джэйк — особенный ребёнок. Во-первых, он развит не по годам, а во-вторых, ему нравятся наряды принцесс. Это может стать «визитной карточкой» мальчика при поступлении в престижный детский сад, но чрезмерное рвение родителей угрожает семейному счастью.

Страна: США, Bankside Films, Burn Later Productions, Double Nickel Entertainment
Продолжительность: 01:29:43
Перевод: Любительский (двухголосый закадровый) | HiWay Grope
Файл
Кодек: MPEG-4 AVC/x.264
Качество: WEBRip 720p
Видео: 1280x688, 25.000 fps, ~4157 kbps, 0.189 bit/pixel
Звук:
Аудио rus: AC3, 48 kHz, 6 ch, 384 Kbps
Субтитры: отсутствуют
Реклама: присутствует
Семпл
MediaInfo:
General
Unique ID : 215862109893862408628872668746760699929 (0xA26587B69EE2153B9CCB471E1791C019)
Complete name : E:A.Kid.Like.Jake.2018.720p.WEBRip.HiWayGropeA.Kid.Like.Jake.2018.720p.WEBRip.HiWayGrope.mkv
Format : Matroska
Format version : Version 2
File size : 2.90 GiB
Duration : 1h 29mn
Overall bit rate : 4 633 Kbps
Encoded date : UTC 2018-06-13 11:32:32
Writing application : mkvmerge v3.3.0 ('Language') built on Mar 24 2010 14:59:24
Writing library : libebml v0.8.0 + libmatroska v0.9.0
Video
ID : 1
Format : AVC
Format/Info : Advanced Video Codec
Format profile : Main@L3.1
Format settings, CABAC : Yes
Format settings, ReFrames : 3 frames
Codec ID : V_MPEG4/ISO/AVC
Duration : 1h 29mn
Bit rate : 4 157 Kbps
Width : 1 280 pixels
Height : 688 pixels
Display aspect ratio : 1.85:1
Frame rate mode : Constant
Frame rate : 25.000 fps
Standard : PAL
Color space : YUV
Chroma subsampling : 4:2:0
Bit depth : 8 bits
Scan type : Progressive
Bits/(Pixel*Frame) : 0.189
Stream size : 2.61 GiB (90%)
Language : English
Default : Yes
Forced : No
Color range : Limited
Color primaries : BT.709
Transfer characteristics : BT.709
Matrix coefficients : BT.709
Audio
ID : 2
Format : AC-3
Format/Info : Audio Coding 3
Mode extension : CM (complete main)
Format settings, Endianness : Big
Codec ID : A_AC3
Duration : 1h 29mn
Bit rate mode : Constant
Bit rate : 384 Kbps
Channel(s) : 6 channels
Channel positions : Front: L C R, Side: L R, LFE
Sampling rate : 48.0 KHz
Frame rate : 31.250 fps (1536 spf)
Compression mode : Lossy
Stream size : 246 MiB (8%)
Default : Yes
Forced : No
Скриншоты
Релиз от: HiWay Grope
[Профиль] [ЛС]
Показать сообщения:    
Ответить на тему

Текущее время: 17-Окт 11:42

Часовой пояс: UTC + 3



Вы не можете начинать темы
Вы не можете отвечать на сообщения
Вы не можете редактировать свои сообщения
Вы не можете удалять свои сообщения
Вы не можете голосовать в опросах
Вы не можете прикреплять файлы к сообщениям
Вы не можете скачивать файлы