Рейс 666 / Flight 666 (2018) WEBRip 720p | L2

Ответить на тему
 
Автор Сообщение

Grandfather61 ®

Пол: Не указан

Стаж: 2 месяца 5 дней

Сообщений: 70

Создавать темы 12-Июн-2018 11:06

[Цитировать]


Информация о фильме
Название: Рейс 666
Оригинальное название: Flight 666
Год выхода: 2018
Жанр: Ужасы
Режиссер: Роб Палатин
В ролях: Рене Уиллетт, Пол Логан, Лиз Феннинг, Хосе Розете, Джозеф Майкл Харрис, Джесси Джеймс Д'Анджело, Джастин Хоффмайстер, Кларисса Тибо, Брендан Петриццо, Грег Фурман, Шамар Филипп, Элизабет Хардинг, Сет Ракос, Мэтью Рили, Шарон Дезире и другие
О фильме:
Пассажиров и экипаж самолета терроризируют потусторонние силы, которые угрожают жизни всех на борту. В борьбе за свою жизнь люди понимают, что это дело рук призраков, которые хотят отомстить своему убийце, но тот сделает все, чтобы остаться в живых.

Страна: США, Asylum
Продолжительность: 01:29:41
Перевод: Любительский (двухголосый закадровый) | HiWay Grope
Файл
Кодек: MPEG-4 AVC/x.264
Качество: WEBRip 720p
Видео: 1280x718, 23.976 fps, ~3124 kbps, 0.142 bit/pixel
Звук:
Аудио rus: AC3, 48 kHz, 6 ch, 384 Kbps
Субтитры: отсутствуют
Реклама: присутствует
Семпл
MediaInfo:
General
Unique ID : 43142852492322350308683837401031061032 (0x207502DABC0C1E517A851DF561A52E28)
Complete name : E:Flight 666.2018.720p.WEBRip.HiWayGropeFlight 666.2018.720p.WEBRip.HiWayGrope.mkv
Format : Matroska
Format version : Version 4 / Version 2
File size : 2.24 GiB
Duration : 1h 29mn
Overall bit rate : 3 579 Kbps
Encoded date : UTC 2018-06-12 07:45:26
Writing application : mkvmerge v21.0.0 ('Tardigrades Will Inherit The Earth') 64-bit
Writing library : libebml v1.3.5 + libmatroska v1.4.8
Video
ID : 1
Format : AVC
Format/Info : Advanced Video Codec
Format profile : Main@L4.1
Format settings, CABAC : Yes
Format settings, ReFrames : 4 frames
Codec ID : V_MPEG4/ISO/AVC
Duration : 1h 29mn
Bit rate : 3 124 Kbps
Width : 1 280 pixels
Height : 718 pixels
Display aspect ratio : 16:9
Frame rate mode : Constant
Frame rate : 23.976 (24000/1001) fps
Standard : NTSC
Color space : YUV
Chroma subsampling : 4:2:0
Bit depth : 8 bits
Scan type : Progressive
Bits/(Pixel*Frame) : 0.142
Stream size : 1.96 GiB (87%)
Language : English
Default : Yes
Forced : No
Color range : Limited
Color primaries : BT.709
Transfer characteristics : BT.709
Matrix coefficients : BT.709
Audio
ID : 2
Format : AC-3
Format/Info : Audio Coding 3
Mode extension : CM (complete main)
Format settings, Endianness : Big
Codec ID : A_AC3
Duration : 1h 29mn
Bit rate mode : Constant
Bit rate : 384 Kbps
Channel(s) : 6 channels
Channel positions : Front: L C R, Side: L R, LFE
Sampling rate : 48.0 KHz
Frame rate : 31.250 fps (1536 spf)
Compression mode : Lossy
Stream size : 246 MiB (11%)
Language : Russian
Default : Yes
Forced : No
Скриншоты
Релиз от: HiWay Grope
[Профиль] [ЛС]
Показать сообщения:    
Ответить на тему

Текущее время: 20-Июн 10:23

Часовой пояс: UTC + 3



Вы не можете начинать темы
Вы не можете отвечать на сообщения
Вы не можете редактировать свои сообщения
Вы не можете удалять свои сообщения
Вы не можете голосовать в опросах
Вы не можете прикреплять файлы к сообщениям
Вы не можете скачивать файлы