Славные пташки / PLOEY. You Never Fly Alone (2017) WEB-DL [H.264/1080p-LQ]

Ответить на тему
 
Автор Сообщение

banzay ®

Пол: Мужской

Стаж: 9 лет 7 месяцев

Сообщений: 1409

Создавать темы 05-Июн-2018 03:41

[Цитировать]

Славные пташки / PLOEY. You Never Fly Alone (2017) WEB-DL - Производство: Исландия, Бельгия | Cyborn, GunHil
Жанр: Приключения
Режиссер: Аудни Аусгейрссон
Персонажи: Джэми Орам, Харриет Перринг, Иэн Стюарт Робертсон, Ричард Уиллс-Коттон, Торунн Эрна Клаузен, Томас Арнольд, Кайзер Ахтар, Дебби Чейзен, Донья Кролл, Грэхэм Йорк
Описание:
Приключения маленького птенца Рыжика и куропатки-отшельника Гайрона. Судьба сводит их вместе, когда Рыжик, отстав от стаи, не смог улететь на юг. Рыжик уговаривает чудаковатого и вечно брюзжащего Гайрона показать ему дорогу в Райскую долину — тайное место в горах, где птицы могут переждать суровую зиму. Путь туда таит немало опасностей. Постепенно неунывающему Рыжику удается растопить сердце старого отшельника. Вместе эта парочка становится друг для друга настоящей семьей, которой по силам свернуть горы.
 
Возраст: 6+ (зрителям, достигшим 6 лет)
Дата мировой премьеры: 2 февраля 2018
Дата российской премьеры: 12 апреля 2018, «Наше Кино»
Цифровой релиз: 17 мая 2018, «Граунд Групп»
Продолжительность: 01:22:34
Качество видео: WEB-DL
Перевод: Дублированный (iTunes)
Субтитры: Отсутствуют
Видео: AVC/H.264, 1920x804 (2.40:1), ~4524 kbps, 24.00 fps
Аудио: AC3, 6 ch, 384 kbps CBR, 48.0 kHz
Mediainfo:
General
Unique ID : 89931129228148187841369108333528759169 (0x43A81B002ADD1BE38D4E6E655A023B81)
Complete name : D:\PLOEY_2017_WEB-DL_1080p.mkv
Format : Matroska
Format version : Version 4 / Version 2
File size : 2.83 GiB
Duration : 1 h 22 min
Overall bit rate : 4 909 kb/s
Encoded date : UTC 2018-06-03 18:43:42
Writing application : mkvmerge v23.0.0 ('The Bride Said No') 32-bit
Writing library : libebml v1.3.6 + libmatroska v1.4.9
Video
ID : 2
Format : AVC
Format/Info : Advanced Video Codec
Format profile : High@L4
Format settings, CABAC : Yes
Format settings, ReFrames : 5 frames
Codec ID : V_MPEG4/ISO/AVC
Duration : 1 h 22 min
Bit rate : 4 524 kb/s
Width : 1 920 pixels
Height : 804 pixels
Display aspect ratio : 2.40:1
Frame rate mode : Constant
Frame rate : 24.000 FPS
Color space : YUV
Chroma subsampling : 4:2:0
Bit depth : 8 bits
Scan type : Progressive
Bits/(Pixel*Frame) : 0.122
Stream size : 2.61 GiB (92%)
Language : English
Default : Yes
Forced : No
Color range : Limited
Color primaries : BT.709
Transfer characteristics : BT.709
Matrix coefficients : BT.709
Audio
ID : 1
Format : AC-3
Format/Info : Audio Coding 3
Format settings, Endianness : Big
Codec ID : A_AC3
Duration : 1 h 22 min
Bit rate mode : Constant
Bit rate : 384 kb/s
Channel(s) : 6 channels
Channel positions : Front: L C R, Side: L R, LFE
Sampling rate : 48.0 kHz
Frame rate : 31.250 FPS (1536 spf)
Bit depth : 16 bits
Compression mode : Lossy
Delay relative to video : -42 ms
Stream size : 227 MiB (8%)
Language : Russian
Service kind : Complete Main
Default : Yes
Forced : No
Menu
00:00:00.000 : en:Глава 1
00:05:37.666 : en:Глава 2
00:11:16.374 : en:Глава 3
00:17:59.457 : en:Глава 4
00:23:10.623 : en:Глава 5
00:28:29.248 : en:Глава 6
00:35:23.998 : en:Глава 7
00:41:04.039 : en:Глава 8
00:47:12.330 : en:Глава 9
00:54:50.705 : en:Глава 10
01:00:24.288 : en:Глава 11
01:05:02.246 : en:Глава 12
01:09:39.662 : en:Глава 13
01:14:56.578 : en:Глава 14
-Скриншоты:
Все одноименные релизы в Клубе
[Профиль] [ЛС]

Mithas204

Пол: Мужской

Стаж: 8 лет 6 месяцев

Сообщений: 13619

Откуда: Душанбе, Курган-Тюбе

Создавать темы 05-Июн-2018 05:57 (спустя 2 часа 16 минут)

[Цитировать]

вверх
[Профиль] [ЛС]

Mithas204

Пол: Мужской

Стаж: 8 лет 6 месяцев

Сообщений: 13619

Откуда: Душанбе, Курган-Тюбе

Создавать темы 05-Июн-2018 06:08 (спустя 10 минут)

[Цитировать]

banzay Привет. Ты меня название файла в торрент файле? Или все оставил как в источнике?
[Профиль] [ЛС]
Показать сообщения:    
Ответить на тему

Текущее время: 20-Июн 10:25

Часовой пояс: UTC + 3



Вы не можете начинать темы
Вы не можете отвечать на сообщения
Вы не можете редактировать свои сообщения
Вы не можете удалять свои сообщения
Вы не можете голосовать в опросах
Вы не можете прикреплять файлы к сообщениям
Вы не можете скачивать файлы