Топор / Серии: 1-2 из 2 (Владимир Семеновых) [2018, Военный фильм, драма, WEBRip]

Ответить на тему
 
Автор Сообщение

Хохрин ®

Пол: Мужской

Стаж: 6 лет 3 месяца

Сообщений: 1167

Откуда: СССР

Создавать темы 10-Май-2018 09:50

[Цитировать]

Топор
- Год выпуска: 2018
Производство: Марс Медиа по заказу НТВ
Жанр: Военный фильм, драма
Продолжительность: 00:43:35
Субтитры: нет-Режиссёр: Владимир Семеновых-В ролях: Андрей Смоляков, Дмитрий Шевченко, Дарья Калмыкова, Артём Алексеев (II), Иван Шибанов, Владимир Капустин, Глеб Подгородинский, Иван Борисов, Александр Ильин, Олег Васильков, Виктор Степанян, Артём Осипов, Константин Юдаев-Описание: Сибирский отшельник, чья жизнь была разрушена жерновами Великой Октябрьской революции, проводит 17 лет в добровольном изгнании.
Узнав о нападении фашистской Германии на СССР, бывший казачий офицер, не задумываясь, устремляется на фронт, чтобы защитить родную землю.-Релиз группа: -Сэмпл: http://multi-up.com/1197764-Качество: WEBRip
Формат: AVI
Видео кодек: XviD
Аудио кодек: AC3
Видео: 720x400 (16:9), 25.000 fps, XviD build 73, 1698 Kbps, 0.23 Bits/Pixel
Аудио: 48 kHz, AC3 Dolby Digital, 2 ch, 192 Kbps
Реклама: Нет
MI
General
Complete name : Downloads\Топор (2018).WEB-DLRip.Files-x\1.Топор (2018).WEB-DLRip.Files-x.avi
Format : AVI
Format/Info : Audio Video Interleave
File size : 597 MiB
Duration : 43mn 56s
Overall bit rate : 1 899 Kbps
Writing application : VirtualDubMod 1.5.10.3 | www.virtualdub-fr.org || (build 2550/release)
Writing library : VirtualDubMod build 2550/release
Video #0
ID : 0
Format : MPEG-4 Visual
Format profile : Advanced Simple@L5
Format settings, BVOP : 1
Format settings, QPel : No
Format settings, GMC : No warppoints
Format settings, Matrix : Custom
Codec ID : XVID
Codec ID/Hint : XviD
Duration : 43mn 56s
Bit rate : 1 698 Kbps
Width : 720 pixels
Height : 400 pixels
Display aspect ratio : 16:9
Frame rate : 25.000 fps
Color space : YUV
Chroma subsampling : 4:2:0
Bit depth : 8 bits
Scan type : Progressive
Compression mode : Lossy
Bits/(Pixel*Frame) : 0.236
Stream size : 534 MiB (89%)
Writing library : XviD 73
Audio #1
ID : 1
Format : AC-3
Format/Info : Audio Coding 3
Mode extension : CM (complete main)
Format settings, Endianness : Big
Codec ID : 2000
Duration : 43mn 56s
Bit rate mode : Constant
Bit rate : 192 Kbps
Channel(s) : 2 channels
Channel positions : Front: L R
Sampling rate : 48.0 KHz
Bit depth : 16 bits
Compression mode : Lossy
Stream size : 60.4 MiB (10%)
Alignment : Split accross interleaves
Interleave, duration : 40 ms (1.00 video frame)
Interleave, preload duration : 500 ms
Скриншоты
-
Если вы не можете скачать раздачу:

Если закачка не идет, добавьте в свой торрент следующие адреса пиров 10.154.25.74:59610
-
[Профиль] [ЛС]
Показать сообщения:    
Ответить на тему

Текущее время: 26-Май 12:59

Часовой пояс: UTC + 3



Вы не можете начинать темы
Вы не можете отвечать на сообщения
Вы не можете редактировать свои сообщения
Вы не можете удалять свои сообщения
Вы не можете голосовать в опросах
Вы не можете прикреплять файлы к сообщениям
Вы не можете скачивать файлы