Турбо дар 3Д / Turbo 3D (Дэвид Сорен / David Soren) [2013, Филми тасвирӣ, Ҳаҷвӣ, Дарояд, Оилавӣ, Варзиш, BDrip-AVC] Half OverUnder / Вертикалӣ анаморфии стереоҷуфт

Ответить на тему
 
Автор Сообщение

banzay ®

Пол: Мужской

Стаж: 10 лет

Сообщений: 1522

Создавать темы 10-Май-2018 03:46

[Цитировать]

-Турбо
Turbo

«Тезтар, боз ҳам тезтар!»
Соли нашр: 2013
Кишвар: ИМА (20th Century Fox, DreamWorks Animation SKG)
Жанр: Филми тасвирӣ, Ҳаҷвӣ, Дарояд, Оилавӣ, Варзиш
Давомнокӣ: 1:35:40
Тарҷума: Дубляж
Режиссер: Дэвид Сорен / David Soren-Қаҳрамонҳоро садо дод (сабти дубляж):

Turbo - Райан Рейнольдс (Асад)
Chet - Пол Джаматти (Додихудо)
Tito - Майкл Пенья
Smoove Move - Снуп Догг (Neutral Farid)
Burn - Майя Рудольф
Paz - Мишель Родригес
Whiplash - Сэмюэл Л. Джексон (A100)
Angelo - Луис Гусман
Guy Gagné - Билл Хейдер
Skidmark - Бен Шварц (Бахтиёр)
Bobby - Ричард Дженкинс
Kim Ly - Кен Жонг
-Тасвир: Ҳеҷ чиз тӯкумшуллуқи бо ғайратро, орзуманди суръати баландро, номдор ба ном Турборо озор намедиҳад ба монанди ҳаёти бешитоб, гуфтори оҳиста, ҳамсояҳои суст. Бигузор қаҳрамони мо дар ин ҷаҳони заиф содда феъл бинамояд, бигузор ба муқобили қонунҳои табиат шитобад, аммо агар дар дил «мотори шуълавар» бошад ва дар руҳ боварӣ бар мӯъҷиза, вай ҳатман бояд рӯй диҳад!-Оё шумо медонед: Дар вақти эҷод дар студияи Dreamworks автомашинаи индикар ворид карданд, то ки барои рассомон бевосита ба мошинҳои пойга озодона роҳ дода шавад.-Намоиши нахустин: 17 июли 2013 (18 июли 2013)
Сабт ба Blu-Ray (DVD): 21 ноябри 2013
Бюджет: 5 000 000
Кассавӣ ҷамъ: 7 634 656

 
. .
-Сифат: BDRip (by Ash61)
Контейнер: MKV
Формат 3D: Half OverUnder / Вертикалӣ анаморфӣ стереоҷуфт
Тартиби ракурсҳо: ракурси чап якум мебошад
Видео кодек: x264
Аудио кодек: AC3-Видео: AVC / 23,976 fps / 1920х1080p / ~6.9 Mbps
Аудио:
#1 - Тоҷикӣ / AC3 / 48 KHz / 5.1 ch / 448 Kbps (Дубляж - BD3D EUR)
Субтитрҳо: (SRT)
Берунӣ (UTF-8 ):
#1 - Тоҷикӣ Пурра
MediaInfo
General
Unique ID : 202906899084065797089567495579174381186 (0x98A672816488EA859264F9A9032F2682)
Complete name : E:\AAA\TURBO\1\3d\Turbo(2013)3D-halfOU(Ash61)_tjk.mkv
Format : Matroska
Format version : Version 2
File size : 5.00 GiB
Duration : 1 h 35 min
Overall bit rate : 7 480 kb/s
Encoded date : UTC 2018-04-19 11:30:18
Writing application : mkvmerge v4.1.1 ('Bouncin' Back') сборка от Jul 3 2010 22:54:08
Writing library : libebml v1.0.0 + libmatroska v1.0.0
Video
ID : 1
Format : AVC
Format/Info : Advanced Video Codec
Format profile : High@L4.1
Format settings, CABAC : Yes
Format settings, RefFrames : 4 frames
Codec ID : V_MPEG4/ISO/AVC
Duration : 1 h 35 min
Bit rate : 6 883 kb/s
Width : 1 920 pixels
Height : 1 080 pixels
Display aspect ratio : 16:9
Frame rate mode : Constant
Frame rate : 23.976 (24000/1001) FPS
Color space : YUV
Chroma subsampling : 4:2:0
Bit depth : 8 bits
Scan type : Progressive
Bits/(Pixel*Frame) : 0.138
Stream size : 4.60 GiB (92%)
Title : Турбои тоҷикӣ
Writing library : x264 core 129 r2245 bc13772
Encoding settings : cabac=1 / ref=4 / deblock=1:-3:-3 / analyse=0x3:0x113 / me=umh / subme=10 / psy=1 / psy_rd=1.00:0.15 / mixed_ref=1 / me_range=32 / chroma_me=1 / trellis=2 / 8x8dct=1 / cqm=0 / deadzone=21,11 / fast_pskip=1 / chroma_qp_offset=-3 / threads=12 / lookahead_threads=2 / sliced_threads=0 / nr=0 / decimate=1 / interlaced=0 / bluray_compat=0 / constrained_intra=0 / bframes=9 / b_pyramid=2 / b_adapt=2 / b_bias=0 / direct=3 / weightb=1 / open_gop=0 / weightp=2 / keyint=250 / keyint_min=23 / scenecut=40 / intra_refresh=0 / rc_lookahead=60 / rc=crf / mbtree=1 / crf=16.5 / qcomp=0.70 / qpmin=0 / qpmax=69 / qpstep=4 / vbv_maxrate=40000 / vbv_bufsize=30000 / crf_max=0.0 / nal_hrd=none / frame-packing=4 / ip_ratio=1.40 / aq=1:0.70
Language : Tajik
Default : Yes
Forced : No
Audio
ID : 2
Format : AC-3
Format/Info : Audio Coding 3
Format settings, Endianness : Big
Muxing mode : Header stripping
Codec ID : A_AC3
Duration : 1 h 35 min
Bit rate mode : Constant
Bit rate : 448 kb/s
Channel(s) : 6 channels
Channel positions : Front: L C R, Side: L R, LFE
Sampling rate : 48.0 kHz
Frame rate : 31.250 FPS (1536 SPF)
Bit depth : 16 bits
Compression mode : Lossy
Stream size : 307 MiB (6%)
Title : Турбои тоҷикӣ
Language : Tajik
Service kind : Complete Main
Default : Yes
Forced : No
Text
ID : 3
Format : UTF-8
Codec ID : S_TEXT/UTF8
Codec ID/Info : UTF-8 Plain Text
Title : Тоҷикӣ
Language : Tajik
Default : No
Forced : No
Menu
00:00:00.000 : :1
00:03:29.626 : :2
00:06:39.858 : :3
00:08:34.222 : :4
00:10:13.863 : :5
00:13:25.096 : :6
00:17:15.785 : :7
00:21:53.354 : :8
00:25:42.708 : :9
00:28:24.494 : :10
00:30:17.899 : :11
00:34:20.892 : :12
00:38:20.340 : :13
00:40:45.109 : :14
00:44:40.219 : :15
00:47:40.941 : :16
00:49:29.925 : :17
00:53:28.956 : :18
00:57:00.626 : :19
00:59:38.825 : :20
01:02:05.972 : :21
01:05:50.780 : :22
01:08:07.166 : :23
01:13:08.801 : :24
01:16:26.791 : :25
01:19:48.450 : :26
01:23:26.126 : :27
01:26:29.726 : :28
Барои баҳогузории 3Д - Намоишҳои ҳаракатнок
[Профиль] [ЛС]

Enjoy

Пол: Не указан

Стаж: 8 дней

Сообщений: 1

Создавать темы 13-Мар-2019 12:16 (спустя 10 месяцев 3 дня)

[Цитировать]

banzay, Илтисом сид кунед!
[Профиль] [ЛС]

banzay ®

Пол: Мужской

Стаж: 10 лет

Сообщений: 1522

Создавать темы 14-Мар-2019 18:50 (спустя 1 день 6 часов)

[Цитировать]

2371427banzay, Илтисом сид кунед!
Гиред
[Профиль] [ЛС]
Показать сообщения:    
Ответить на тему

Текущее время: 22-Мар 03:57

Часовой пояс: UTC + 3



Вы не можете начинать темы
Вы не можете отвечать на сообщения
Вы не можете редактировать свои сообщения
Вы не можете удалять свои сообщения
Вы не можете голосовать в опросах
Вы не можете прикреплять файлы к сообщениям
Вы не можете скачивать файлы