Затерянные в космосе / Lost in Space [2018] (Сезон 1 , Серия 1-10 из 10) (Тим Соутэм, Дебора Чоу) [Фантастика , WEB-DLRip][1080p][DD5.1][LostFilm+AlexFilm+BaibaKО+IdeaFilm+ProfixMedia+Eng]+[Subs ENG+Rus]

Ответить на тему
 
Автор Сообщение

Nikolai.Baranov ®

Пол: Мужской

Стаж: 11 месяцев 17 дней

Сообщений: 63

Откуда: КРАСНОГОРСК

Создавать темы 23-Апр-2018 21:35

[Цитировать]

-- --Затерянные в космосе / Lost in Space Сезон 1 , Серия 1-10 из 10 -- --Год выпуска: 2018
Выпущено: США , Applebox Pictures, Clickety-Clack Productions, Legendary Television, Synthesis Entertainment
Жанр: Фантастика
Продолжительность: 00:01:04:00
Сезон:1
Серия:1-10
Количество серий в сезоне: 10--Озвучка1: Профессиональный многоголосый - LostFilm -Русский
Озвучка2: Профессиональный многоголосый - AlexFilm -Русский
Озвучка3: Профессиональный многоголосый - BaibaKО -Русский
Озвучка 4: Профессиональный многоголосый -IdeaFilm -Русский
[Озвучка 4: Профессиональный многоголосый -ProfixMedia -Русский
Озвучка 6: Профессиональный многоголосый - Английский - Оригинал
Субтитры: : Russian, English, English SDH --Официальный сайт
MDB --Режиссеры:
Тим Соутэм, Дебора Чоу, Стивен Серджик--Актеры:
Мина Сандвол, Молли Паркер, Тоби Стивенс, Паркер Поузи, Макс Дженкинс, Тейлор Расселл, Игнасио Серричио, Амелия Берстин, Раза Джеффри, Аджай Парих-Фризе-- 2046 год. Космический корабль теряется в космосе и терпит крушение на планете на расстоянии нескольких световых лет от планируемого места назначения. Его обитатели, семья Робинсонов, вынуждены приспособиться и выжить в новых условиях. Джон и Морин Робинсоны не слишком хорошо ладят друг с другом, но отчаянно пытаются не замечать своих проблем ради сохранения хотя бы подобия семьи, ведь у них такие талантливые дети! Джуди, Пенни и Уилл — замечательные, способные малыши, и они совсем не заслужили слушать бесконечные выяснения отношений между отцом и матерью. А им придется расти с этим, ведь все они оказались в открытом космосе на множество световых лет из-за ошибки в навигации.-- --Качество :WEB-DLRip 1080p
Формат: MKV
Видео кодек: H264
Видео: 6802Кбит/сек,1920х960(2.000), в 23.976кадр/сек,AVC(NTSC) (Main@L4.1)(CABAC/4 Ref Frames)--Аудио Кодек:AC3
[Аудио #1:AC3 640 Kbps, 48.0 KHz, 6 ch- LostFilm -Русский
Аудио #2:AC3 , 384 Kbps, 48.0 KHz, 6 ch- AlexFilm -Русский
Аудио #3:AC3 , 384 Kbps, 48.0 KHz, 6 ch- BaibaKО -Русский
Аудио #4:AC3 , 384 Kbps, 48.0 KHz, 6 ch- IdeaFilm -Русский
Аудио #5:AC3 , 384 Kbps, 48.0 KHz, 6 ch-ProfixMedia -Русский
Аудио #6: AC3, 640 Kbps, 48.0 KHz,6 ch - - English - Оригинал--
Доп. информация:
Звуковая дорожка сделана путем наложения чистого голоса озвучивателей на центральный канал оригинальной дорожки. Качество идентично звуковой дорожке.
--
Список эпизодов сезона

1 сезон 1 серия - Столкновение - Impact
1 сезон 2 серия - Алмазы в небесах - Diamonds in the Sky
1 сезон 3 серия - Паразиты - Infestation
1 сезон 4 серия - Здесь были Робинсоны - The Robinsons Were Here
1 сезон 5 серия - Передача - Transmission
1 сезон 6 серия - Надгробное слово - Eulogy
1 сезон 7 серия - Под давлением - Pressurized
1 сезон 8 серия - Траектория - Trajectory
1 сезон 9 серия - Воскрешение - Resurrection
1 сезон 10 серия - Опасность, Уилл Робинсон - Danger, Will Robinson
--
MediaInfo сезона
Общее
Уникальный идентификатор : 238486678409161245456729236519115042283 (0xB36ADD103542EB2E16A21622C1582DEB)
Полное имя : E:\Nikolai.Baranov & PIRATIYA\Затерянные в космосе ( Lost in Space )\Lost_In_Space_2018_S01_Н264_DD5.1_N.B_HD_1080_5xRus_Eng\Lost_In_Space_S01E01_Н264_DD5.1_N.B_HD_1080_5xRus_Eng.mkv
Формат : Matroska
Версия формата : Version 4 / Version 2
Размер файла : 4,22 Гбайт
Продолжительность : 1 ч. 3 м.
Общий поток : 9505 Кбит/сек
Название фильма : Lost in Space S01E01 @ Nikolai.Baranov & PIRATIYA
Дата кодирования : UTC 2018-04-23 06:55:11
Программа кодирования : mkvmerge v22.0.0 ('At The End Of The World') 64-bit
Библиотека кодирования : libebml v1.3.5 + libmatroska v1.4.8
Видео
Идентификатор : 1
Формат : AVC
Формат/Информация : Advanced Video Codec
Профиль формата : Main@L4.1
Настройки формата : CABAC / 4 Ref Frames
Параметр CABAC формата : Да
Параметр RefFrames формата : 4 кадра
Идентификатор кодека : V_MPEG4/ISO/AVC
Продолжительность : 1 ч. 2 м.
Битрейт : 6802 Кбит/сек
Ширина : 1920 пикселей
Высота : 960 пикселей
Соотношение сторон : 2,000
Режим частоты кадров : Постоянный
Частота кадров : 23,976 (23976/1000) кадра/сек
Частота кадров в оригинале : 23,976 (24000/1001) кадра/сек
Стандарт вещания : NTSC
Цветовое пространство : YUV
Субдискретизация насыщенности : 4:2:0
Битовая глубина : 8 бит
Тип развёртки : Прогрессивная
Бит/(Пиксели*Кадры) : 0.154
Размер потока : 2,98 Гбайт (71%)
Заголовок : Lost_In_Space_S01E01_Н264_DD5.1_N.B_HD_1080_5xRus_Eng
Язык : Russian
Default : Да
Forced : Нет
Цветовой диапазон : Limited
Основные цвета : BT.709
Характеристики трансфера : BT.709
Коэффициенты матрицы : BT.709
Аудио #1
Идентификатор : 5
Формат : AC-3
Формат/Информация : Audio Coding 3
Идентификатор кодека : A_AC3
Продолжительность : 1 ч. 3 м.
Вид битрейта : Постоянный
Битрейт : 640 Кбит/сек
Каналы : 6 каналов
Расположение каналов : Front: L C R, Side: L R, LFE
Частота : 48,0 КГц
Частота кадров : 31,250 кадров/сек (1536 SPF)
Битовая глубина : 16 бит
Метод сжатия : С потерями
Размер потока : 291 Мбайт (7%)
Заголовок : MVO LostFilm @DD5.1 AC3, 640 Kbps, 48.0 KHz, 6 ch
Язык : Russian
ServiceKind/String : Complete Main
Default : Да
Forced : Нет
Аудио #2
Идентификатор : 6
Формат : AC-3
Формат/Информация : Audio Coding 3
Идентификатор кодека : A_AC3
Продолжительность : 1 ч. 2 м.
Вид битрейта : Постоянный
Битрейт : 384 Кбит/сек
Каналы : 6 каналов
Расположение каналов : Front: L C R, Side: L R, LFE
Частота : 48,0 КГц
Частота кадров : 31,250 кадров/сек (1536 SPF)
Битовая глубина : 16 бит
Метод сжатия : С потерями
Размер потока : 172 Мбайт (4%)
Заголовок : MVO AlexFilm @DD5.1 AC3, 384 Kbps, 48.0 KHz, 6 ch
Язык : Russian
ServiceKind/String : Complete Main
Default : Нет
Forced : Нет
Аудио #3
Идентификатор : 7
Формат : AC-3
Формат/Информация : Audio Coding 3
Идентификатор кодека : A_AC3
Продолжительность : 1 ч. 2 м.
Вид битрейта : Постоянный
Битрейт : 384 Кбит/сек
Каналы : 6 каналов
Расположение каналов : Front: L C R, Side: L R, LFE
Частота : 48,0 КГц
Частота кадров : 31,250 кадров/сек (1536 SPF)
Битовая глубина : 16 бит
Метод сжатия : С потерями
Размер потока : 172 Мбайт (4%)
Заголовок : MVO BaibaKo @DD5.1 AC3, 384 Kbps, 48.0 KHz, 6 ch
Язык : Russian
ServiceKind/String : Complete Main
Default : Нет
Forced : Нет
Аудио #4
Идентификатор : 8
Формат : AC-3
Формат/Информация : Audio Coding 3
Идентификатор кодека : A_AC3
Продолжительность : 1 ч. 2 м.
Вид битрейта : Постоянный
Битрейт : 384 Кбит/сек
Каналы : 6 каналов
Расположение каналов : Front: L C R, Side: L R, LFE
Частота : 48,0 КГц
Частота кадров : 31,250 кадров/сек (1536 SPF)
Битовая глубина : 16 бит
Метод сжатия : С потерями
Размер потока : 172 Мбайт (4%)
Заголовок : MVO IdeaFilm @DD5.1 AC3, 384 Kbps, 48.0 KHz, 6 ch
Язык : Russian
ServiceKind/String : Complete Main
Default : Нет
Forced : Нет
Аудио #5
Идентификатор : 9
Формат : AC-3
Формат/Информация : Audio Coding 3
Идентификатор кодека : A_AC3
Продолжительность : 1 ч. 3 м.
Вид битрейта : Постоянный
Битрейт : 384 Кбит/сек
Каналы : 6 каналов
Расположение каналов : Front: L C R, Side: L R, LFE
Частота : 48,0 КГц
Частота кадров : 31,250 кадров/сек (1536 SPF)
Битовая глубина : 16 бит
Метод сжатия : С потерями
Размер потока : 175 Мбайт (4%)
Заголовок : MVO ProfixMedia @DD5.1 AC3, 384 Kbps, 48.0 KHz, 6 ch
Язык : Russian
ServiceKind/String : Complete Main
Default : Нет
Forced : Нет
Аудио #6
Идентификатор : 10
Формат : AC-3
Формат/Информация : Audio Coding 3
Идентификатор кодека : A_AC3
Продолжительность : 1 ч. 2 м.
Вид битрейта : Постоянный
Битрейт : 640 Кбит/сек
Каналы : 6 каналов
Расположение каналов : Front: L C R, Side: L R, LFE
Частота : 48,0 КГц
Частота кадров : 31,250 кадров/сек (1536 SPF)
Битовая глубина : 16 бит
Метод сжатия : С потерями
Размер потока : 287 Мбайт (7%)
Заголовок : Original@DD5.1 AC3 ,640 Kbps, 48.0 KHz, 6 ch
Язык : English
ServiceKind/String : Complete Main
Default : Нет
Forced : Нет
Текст #1
Идентификатор : 2
Формат : UTF-8
Идентификатор кодека : S_TEXT/UTF8
Идентификатор кодека/Информация : UTF-8 Plain Text
Продолжительность : 59 м. 45 с.
Битрейт : 70 бит/сек
ElementCount : 653
Размер потока : 30,7 Кбайт (0%)
Заголовок : Rus
Язык : Russian
Default : Да
Forced : Нет
Текст #2
Идентификатор : 3
Формат : UTF-8
Идентификатор кодека : S_TEXT/UTF8
Идентификатор кодека/Информация : UTF-8 Plain Text
Продолжительность : 1 ч. 0 м.
Битрейт : 54 бит/сек
ElementCount : 805
Размер потока : 24,3 Кбайт (0%)
Заголовок : Original
Язык : English
Default : Нет
Forced : Нет
Текст #3
Идентификатор : 4
Формат : UTF-8
Идентификатор кодека : S_TEXT/UTF8
Идентификатор кодека/Информация : UTF-8 Plain Text
Продолжительность : 1 ч. 0 м.
Битрейт : 54 бит/сек
ElementCount : 832
Размер потока : 24,4 Кбайт (0%)
Заголовок : Original - SDH
Язык : English
Default : Нет
Forced : Нет
Меню
00:00:00.000 : en:Глава 01 / en:Глава 01 / en:Глава 01 / en:Глава 01 / en:Глава 01 / en:Глава 01 / en:Глава 01 / en:Глава 01 / en:Глава 01 / en:Глава 01
--
Скриншоты
-- --
Как закачать отдельный файл
1. Открыть торрент
2. Снять галки с тех файлов торрента, которые мы не хотим закачивать. Оставляем только на нужных нам файлах (файле).
3. Нажать О.К.
В клиенте utorrent
Инструкция
1) Открыть торрент

2) Снять галки с тех файлов торрента, которые мы не хотим закачивать:
* либо вручную, снимая с каждого файла галку( скрин №1)
* либо, нажав кнопку "Снять метки (Select None)", сняв сразу со всех файлов(скрин №2)
№1

№2

Оставляем только на нужных нам файлах (файле).

3)Нажать О.К
-- -- --Внимание!!! 15.05. 2018. РАЗДАЧА ОБНОВЛЕНА. ДОБАВЛЕНА 10 СЕРИЯ.ФИНАЛ СЕЗОНА. ОБНОВИТЕ ТОРЕНТ ФАЙЛ. ПРИЯТНОГО ПРОСМОТРА . --Релиз от: Nikolai.Baranov & PIRATIYA -- -- -- --Время раздачи:24/7
[Профиль] [ЛС]
Показать сообщения:    
Ответить на тему

Текущее время: 26-Май 12:49

Часовой пояс: UTC + 3



Вы не можете начинать темы
Вы не можете отвечать на сообщения
Вы не можете редактировать свои сообщения
Вы не можете удалять свои сообщения
Вы не можете голосовать в опросах
Вы не можете прикреплять файлы к сообщениям
Вы не можете скачивать файлы