Сага о чудовище / Wildling (2018) WEBRip 720p | L2

Ответить на тему
 
Автор Сообщение

Grandfather61 ®

Пол: Не указан

Стаж: 3 месяца 7 дней

Сообщений: 100

Создавать темы 16-Апр-2018 17:50

[Цитировать]


Информация о фильме
Название: Сага о чудовище
Оригинальное название: Wildling
Год выхода: 2018
Жанр: ужасы, фэнтези
Режиссер: Фридрих Боэм
В ролях: Лив Тайлер, Брэд Дуриф, Бел Паули, Джеймс ЛеГрос, Майк Фейст, Трой Раптэш, Бэвиш Патель, Фрэнк Дил, Келли Ламор Уилсон, Брайан Донахью и другие.
О фильме:
Выросшая в полной изоляции в лесной хижине 16-летняя Анна ничего не знает о внешнем мире, пока ее не находят местный шериф Эллен и ее 16-летний брат Рэй. Но, даже находясь под их защитой, Анна не перестает бояться будто бы охотящихся за ней страшных чудовищ, о которых ей рассказывал отец. Чем больше Анна открывает для себя новый мир, тем больше она проникает в тайну чудовищ и понимает, что ее жизнь неразрывно связана с этой легендой.

Страна: США, Maven Pictures, Film i Väst, Filmgate Films
Продолжительность: 01:33:03
Перевод: Любительский (двухголосый закадровый) | HiWay Grope
Файл
Кодек: MPEG-4 AVC/x.264
Качество: WEBRip 720p
Видео: 1280х528, 23.976 fps, ~2834 kbps, 0.175 bit/pixel
Звук:
Аудио rus: AC3, 48 kHz, 6 ch, 384 Kbps
Субтитры: отсутствуют
Реклама: присутствует
Семпл
MediaInfo:
General
Unique ID : 131781788709980206899639148334153066532 (0x63243FD222671820E2E7423DDCE5E824)
Complete name : E:Wildling.2018.720p.WEBRip.HiWayGropeWildling.2018.720p.WEBRip.HiWayGrope.mkv
Format : Matroska
Format version : Version 4 / Version 2
File size : 2.13 GiB
Duration : 1h 33mn
Overall bit rate : 3 284 Kbps
Encoded date : UTC 2018-04-16 13:17:16
Writing application : mkvmerge v21.0.0 ('Tardigrades Will Inherit The Earth') 64-bit
Writing library : libebml v1.3.5 + libmatroska v1.4.8
Video
ID : 1
Format : AVC
Format/Info : Advanced Video Codec
Format profile : Main@L4.1
Format settings, CABAC : Yes
Format settings, ReFrames : 4 frames
Codec ID : V_MPEG4/ISO/AVC
Duration : 1h 33mn
Bit rate : 2 834 Kbps
Width : 1 280 pixels
Height : 528 pixels
Display aspect ratio : 2.40:1
Frame rate mode : Constant
Frame rate : 23.976 (24000/1001) fps
Standard : NTSC
Color space : YUV
Chroma subsampling : 4:2:0
Bit depth : 8 bits
Scan type : Progressive
Bits/(Pixel*Frame) : 0.175
Stream size : 1.84 GiB (86%)
Language : English
Default : Yes
Forced : No
Color range : Limited
Color primaries : BT.601 NTSC
Transfer characteristics : BT.601
Matrix coefficients : BT.601
Audio
ID : 2
Format : AC-3
Format/Info : Audio Coding 3
Mode extension : CM (complete main)
Format settings, Endianness : Big
Codec ID : A_AC3
Duration : 1h 33mn
Bit rate mode : Constant
Bit rate : 384 Kbps
Channel(s) : 6 channels
Channel positions : Front: L C R, Side: L R, LFE
Sampling rate : 48.0 KHz
Frame rate : 31.250 fps (1536 spf)
Compression mode : Lossy
Stream size : 256 MiB (12%)
Title : rus
Language : Russian
Default : Yes
Forced : No
Скриншоты
Релиз от: HiWay Grope
[Профиль] [ЛС]
Показать сообщения:    
Ответить на тему

Текущее время: 22-Июл 12:00

Часовой пояс: UTC + 3



Вы не можете начинать темы
Вы не можете отвечать на сообщения
Вы не можете редактировать свои сообщения
Вы не можете удалять свои сообщения
Вы не можете голосовать в опросах
Вы не можете прикреплять файлы к сообщениям
Вы не можете скачивать файлы