Ограбление в ураган / The Hurricane Heist (2018) WEB-DLRip [H.264/1080p-LQ] [Line, AD]

Ответить на тему
 
Автор Сообщение

Хохрин ®

Пол: Мужской

Стаж: 6 лет 5 месяцев

Сообщений: 1168

Откуда: СССР

Создавать темы 16-Апр-2018 10:21

[Цитировать]

Ограбление в ураган / The Hurricane Heist (2018) WEB-DLRip [H.264/1080p-LQ]- Производство: США, Dream Team Films Pvt. Ltd., Foresight Unlimited, Head Gear Films, Metrol Technology, Parkside Pictures, RSVP Entertainment, Signature Pictures, Tadross Media Group, Windfall Productions
Жанр: Боевик, Триллер
Режиссер: Роб Коэн
Продюсер: Карен Элиз Болдуин, Марк Дэймон, Моше Дайамант
Актеры: Тоби Кеббелл, Мэгги Грэйс, Райан Квантен, Ралф Айнесон, Мелисса Болона, Бен Кросс, Джэми Эндрю Катлер, Кристиан Райан Контрерас, Jimmy Walker, Эд Бирч
Описание:
На побережье Америки стремительно надвигается ураган. Тем временем банда воров планирует идеальное ограбление: украсть 600 миллионов долларов из казначейства США, воспользовавшись стихийным бедствием как прикрытием. Но один фактор грабители не учли — честную и подготовленную работницу казначейства. Женщина вовремя объединяется с исследователем ураганов на специализированном бронированном автомобиле, и теперь они — единственные, кто может помешать ворам осуществить план ограбления. Почти единственные, ведь для урагана вне категорий не существует деления на своих и чужих.
Возраст: 16+ (зрителям, достигшим 16 лет)
Рейтинг MPAA: PG-13 (детям до 13 лет просмотр нежелателен)
Дата мировой премьеры: 28 февраля 2018
Дата российской премьеры: 8 марта 2018, «MEGOGO Distribution»
Продолжительность: 01:38:13
Качество видео: WEB-DLRip
Перевод: Дублированный (Чистый звук)
Субтитры: Отсутствуют
Реклама: Присутствуют текстовые вставки рекламы
Видео: AVC/H.264, 1918x800 (2.40:1), 5089 kbps, 23.976 fps
Аудио: 48 kHz, AC3 Dolby Digital, 2/0 (L,R) ch, ~384 kbps
MediaInfo:
Общее
Уникальный идентификатор : 178050060867613175141831353945626608156 (0x85F331C30D0820DC8E3F227BE225821C)
Полное имя : D:\Ограбление.в.ураган.2018.WEB-DLRip.[1080p].NNMClub.mkv
Формат : Matroska
Версия формата : Version 2
Размер файла : 3,83 Гбайт
Продолжительность : 1 ч. 38 м.
Режим общего битрейта : Переменный
Общий поток : 5584 Кбит/сек
Дата кодирования : UTC 2018-04-15 14:22:50
Программа кодирования : mkvmerge v8.3.0 ('Over the Horizon') 64bit
Библиотека кодирования : libebml v1.3.1 + libmatroska v1.4.2
Видео
Идентификатор : 2
Формат : AVC
Формат/Информация : Advanced Video Codec
Профиль формата : High@L4.1
Параметр CABAC формата : Да
Параметр RefFrames формата : 4 кадра
Идентификатор кодека : V_MPEG4/ISO/AVC
Продолжительность : 1 ч. 38 м.
Вид битрейта : Переменный
Битрейт : 5089 Кбит/сек
Максимальный битрейт : 5700 Кбит/сек
Ширина : 1918 пикселей
Высота : 800 пикселей
Соотношение сторон : 2,40:1
Режим частоты кадров : Постоянный
Частота кадров : 23,976 (24000/1001) кадра/сек
Стандарт вещания : Component
Цветовое пространство : YUV
Субдискретизация насыщенности : 4:2:0
Битовая глубина : 8 бит
Тип развёртки : Прогрессивная
Бит/(Пиксели*Кадры) : 0.138
Размер потока : 3,49 Гбайт (91%)
Язык : Russian
Default : Да
Forced : Нет
Цветовой диапазон : Limited
Основные цвета : BT.709
Характеристики трансфера : BT.709
Коэффициенты матрицы : BT.709
Аудио
Идентификатор : 1
Формат : AC-3
Формат/Информация : Audio Coding 3
Параметр Endianness формата : Big
Идентификатор кодека : A_AC3
Продолжительность : 1 ч. 38 м.
Вид битрейта : Постоянный
Битрейт : 384 Кбит/сек
Каналы : 2 канала
Расположение каналов : Front: L R
Частота : 48,0 КГц
Частота кадров : 31,250 кадров/сек (1536 SPF)
Битовая глубина : 16 бит
Метод сжатия : С потерями
Размер потока : 270 Мбайт (7%)
Язык : English
ServiceKind/String : Complete Main
Default : Да
Forced : Нет
Скриншоты:
-
Если вы не можете скачать раздачу:

Если закачка не идет, добавьте в свой торрент следующие адреса пиров 10.154.25.74:59610
-
[Профиль] [ЛС]
Показать сообщения:    
Ответить на тему

Текущее время: 22-Июл 12:02

Часовой пояс: UTC + 3



Вы не можете начинать темы
Вы не можете отвечать на сообщения
Вы не можете редактировать свои сообщения
Вы не можете удалять свои сообщения
Вы не можете голосовать в опросах
Вы не можете прикреплять файлы к сообщениям
Вы не можете скачивать файлы