Три богатыря и принцесса Египта (2017) BDRip-AVC от ExKinoRay | Лицензия

Ответить на тему
 
Автор Сообщение

Zibak ®

Пол: Мужской

Стаж: 10 лет

Сообщений: 32574

Откуда: Aden

Создавать темы 29-Мар-2018 05:15

[Цитировать]

Информация о фильме
Название: Три богатыря и принцесса Египта
Год выхода: 2017
Жанр: мультфильм, приключения, семейный, фэнтези
Режиссер: Константин Феоктистов
Роли озвучивали: Олег Куликович, Валерий Соловьев, Дмитрий Быковский-Ромашов, Сергей Маковецкий, Дмитрий Высоцкий, Александр Быковский, Елена Шульман, Лия Медведева, Мария Цветкова-Овсянникова, Анатолий Петров
Описание:
В новогоднюю ночь, в то время, как Князь готовится произнести торжественную речь, а Юлий распаковывает подарки и следит за приготовлением праздничного стола, богатыри едут в гости к Алёше и встречают там странного товарища по имени Дурило. Оказывается, это тринадцатый месяц, который никому особенно не нужен, и который пытается осуществить своё заветное желание — стать самым главным месяцем в году. Только и надо ему, что притвориться Дедом Морозом, показать доверчивому Алёше пару фокусов, подружиться с богатырями и оказаться в Египте — стране фараонов и древних пирамид. А дальше — пирамиды, заклинание, Древний огонь — и дело в шляпе! Но не так-то просто осуществить своё коварное желание, когда на пути у тебя встают не только три богатыря, но и их жёны, Князь и Юлий, Змей Горыныч и Дед Мороз и даже — сама принцесса Нефертити!


Страна: Россия
Продолжительность: 01:11:45
Язык: Русский
Файл
Формат: MKV
Качество: BDRip-AVC
Видео: MPEG-4 AVC, 1024x576 (16:9), 24.000 fps, ~2005 kbps avg, 0.142 bit/pixel
Звук: AC3, 48.0 KHz, 5.1 ch, 448 kbps
МИ
General
Unique ID : 193709080825229655419600624983514344178 (0x91BB030D96D169FAA51D7A5BC2A4EAF2)
Complete name : D:Tri.bogaturya.i.Printzesa.Eghipta.2017.O.BDRip.AVC.ExKinoRay.mkv
Format : Matroska
Format version : Version 2
File size : 1.23 GiB
Duration : 1 h 11 min
Overall bit rate : 2 452 kb/s
Movie name : 3 богатыря и принцесса Египта (2017) from ExKinoRay
Encoded date : UTC 2018-03-28 15:23:45
Writing application : mkvmerge v5.6.0 ('Kenya Kane') built on May 27 2012 16:44:04
Writing library : libebml v1.2.3 + libmatroska v1.3.0
Video
ID : 1
Format : AVC
Format/Info : Advanced Video Codec
Format profile : High@L4.1
Format settings, CABAC : Yes
Format settings, ReFrames : 12 frames
Codec ID : V_MPEG4/ISO/AVC
Duration : 1 h 11 min
Bit rate : 2 005 kb/s
Width : 1 024 pixels
Height : 576 pixels
Display aspect ratio : 16:9
Frame rate mode : Constant
Frame rate : 24.000 FPS
Color space : YUV
Chroma subsampling : 4:2:0
Bit depth : 8 bits
Scan type : Progressive
Bits/(Pixel*Frame) : 0.142
Stream size : 1 004 MiB (80%)
Title : Enigma
Writing library : x264 core 152 r2851 ba24899
Encoding settings : cabac=1 / ref=12 / deblock=1:-2:-2 / analyse=0x3:0x113 / me=umh / subme=10 / psy=1 / psy_rd=1.05:0.10 / mixed_ref=1 / me_range=32 / chroma_me=1 / trellis=2 / 8x8dct=1 / cqm=0 / deadzone=21,11 / fast_pskip=0 / chroma_qp_offset=-3 / threads=12 / lookahead_threads=3 / sliced_threads=0 / nr=0 / decimate=0 / interlaced=0 / bluray_compat=0 / constrained_intra=0 / bframes=10 / b_pyramid=2 / b_adapt=2 / b_bias=0 / direct=3 / weightb=1 / open_gop=0 / weightp=2 / keyint=240 / keyint_min=24 / scenecut=40 / intra_refresh=0 / rc_lookahead=40 / rc=2pass / mbtree=0 / bitrate=2005 / ratetol=1.0 / qcomp=0.60 / qpmin=0 / qpmax=51 / qpstep=4 / cplxblur=20.0 / qblur=0.5 / vbv_maxrate=50000 / vbv_bufsize=62500 / nal_hrd=none / filler=0 / ip_ratio=1.40 / pb_ratio=1.30 / aq=1:1.00
Language : English
Default : Yes
Forced : No
Color range : Limited
Color primaries : BT.709
Transfer characteristics : BT.709
Matrix coefficients : BT.709
Audio
ID : 2
Format : AC-3
Format/Info : Audio Coding 3
Mode extension : CM (complete main)
Format settings, Endianness : Big
Codec ID : A_AC3
Duration : 1 h 11 min
Bit rate mode : Constant
Bit rate : 448 kb/s
Channel(s) : 6 channels
Channel positions : Front: L C R, Side: L R, LFE
Sampling rate : 48.0 kHz
Frame rate : 31.250 FPS (1536 spf)
Compression mode : Lossy
Stream size : 230 MiB (18%)
Language : Russian
Default : Yes
Forced : No
Menu
00:00:00.000 : :Chapter 01
00:05:17.041 : :Chapter 02
00:11:43.625 : :Chapter 03
00:18:26.208 : :Chapter 04
00:22:34.500 : :Chapter 05
00:29:53.041 : :Chapter 06
00:37:39.083 : :Chapter 07
00:44:21.250 : :Chapter 08
00:50:17.541 : :Chapter 09
00:56:49.416 : :Chapter 10
01:01:27.625 : :Chapter 11
01:05:53.666 : :Chapter 12
01:11:45.666 : :Chapter 13

Релиз от:
Автор релиза:
[Профиль] [ЛС]

Root_tj

Пол: Мужской

Стаж: 4 года 4 месяца

Сообщений: 6540

Откуда: Khujand

Создавать темы 29-Мар-2018 06:51 (спустя 1 час 35 минут)

[Цитировать]

спасибо
[Профиль] [ЛС]

Pitbull-

Пол: Мужской

Стаж: 4 года 5 месяцев

Сообщений: 308

Откуда: Ул. Большая Лубянка 2

Создавать темы 07-Апр-2018 16:37 (спустя 9 дней)

[Цитировать]

Спасибо, что же делали бы мы без торрента
[Профиль] [ЛС]
Показать сообщения:    
Ответить на тему

Текущее время: 22-Окт 05:46

Часовой пояс: UTC + 3



Вы не можете начинать темы
Вы не можете отвечать на сообщения
Вы не можете редактировать свои сообщения
Вы не можете удалять свои сообщения
Вы не можете голосовать в опросах
Вы не можете прикреплять файлы к сообщениям
Вы не можете скачивать файлы