Звёздные войны: Пробуждение силы / Star Wars: The Force Awakens (Джей Джей Абрамс / J.J. Abrams) [2015, США, фантастика, фэнтези, боевик, приключения, BDRip 1080p] Dub + MVO + Sub Rus, Eng + Original Eng

Ответить на тему
 
Автор Сообщение

Mithas204 ®

Пол: Мужской

Стаж: 8 лет 11 месяцев

Сообщений: 13871

Откуда: Душанбе, Курган-Тюбе

Создавать темы 13-Мар-2018 09:49

[Цитировать]

-Звёздные войны: Пробуждение силы / Star Wars: The Force Awakens-Страна: США
Жанр: Фантастика, фэнтези, боевик, приключения
Год выпуска: 2015
Продолжительность: 02:18:06-Перевод: Профессиональный (дублированный)
Субтитры: Русский, Английский
Оригинальная аудиодорожка: Нет-Режиссер: Джей Джей Абрамс / J.J. Abrams
В ролях: Джон Бойега, Дэйзи Ридли, Оскар Айзек, Адам Драйвер, Донал Глисон, Харрисон Форд, Марк Хэмилл, Кэрри Фишер, Макс фон Сюдов, Энди Серкис, Лупита Нионго, Энтони Дэниелс, Питер Мейхью, Гвендолин Кристи, Пип Андерсон, Саймон Пегг, Киран Шах, Саша Фрост, Пип Торренс, Эндрю Джек-Описание: Через тридцать лет после гибели Дарта Вейдера и Императора галактика по-прежнему в опасности. Государственное образование Новый Порядок во главе с их таинственным верховным лидером Сноуком и его правой рукой Кайло Реном идёт по стопам Империи, пытаясь захватить всю власть. В это нелёгкое время судьба сводит юную девушку Рей и бывшего штурмовика Нового Порядка Финна с героями времён войны с Империей — Ханом Соло, Чубаккой и Королевой Леей. Вместе они должны дать бой Новому Порядку, однако настаёт тот момент, когда становится очевидно, что лишь джедаи могут остановить Сноука и Кайло Рена. И в галактике в живых остаётся только один…- 
Сэмпл
Возраст: 12+ (зрителям, достигшим 12 лет)
Рейтинг MPAA: PG-13 (детям до 13 лет просмотр нежелателен)
Дата выхода Blu-ray релиза: 5 апреля, 2016
Релиз от: SanLex
-Тип релиза: BDRip 1080p
Контейнер: MKV
Видео: AVC/H.264, 1 920x800 (2.40:1), ~4 062 Kbps, 23.976 fps
Аудио: AC3, 6 ch, 48 kHz, 448 Kbps | Дубляж
Формат субтитров: Вшитые (отключаемые)
MI
Video
ID : 1
Format : AVC
Format/Info : Advanced Video Codec
Format profile : High@L4.1
Format settings, CABAC : Yes
Format settings, ReFrames : 4 frames
Codec ID : V_MPEG4/ISO/AVC
Duration : 2h 18mn
Bit rate : 4 062 Kbps
Width : 1 920 pixels
Height : 800 pixels
Display aspect ratio : 2.40:1
Frame rate mode : Constant
Frame rate : 23.976 fps
Color space : YUV
Chroma subsampling : 4:2:0
Bit depth : 8 bits
Scan type : Progressive
Bits/(Pixel*Frame) : 0.110
Stream size : 3.85 GiB (88%)
Title : Звёздные войны: Пробуждение силы - Star Wars: Episode VII - The Force Awakens (2015)
Writing library : x264 core 146 r2538 121396c
Encoding settings : cabac=1 / ref=4 / deblock=1:-1:-1 / analyse=0x3:0x113 / me=umh / subme=10 / psy=1 / psy_rd=1.00:0.00 / mixed_ref=1 / me_range=32 / chroma_me=1 / trellis=2 / 8x8dct=1 / cqm=0 / deadzone=21,11 / fast_pskip=0 / chroma_qp_offset=-2 / threads=3 / lookahead_threads=1 / sliced_threads=0 / nr=0 / decimate=1 / interlaced=0 / bluray_compat=0 / constrained_intra=0 / bframes=8 / b_pyramid=2 / b_adapt=2 / b_bias=0 / direct=3 / weightb=1 / open_gop=0 / weightp=2 / keyint=240 / keyint_min=24 / scenecut=40 / intra_refresh=0 / rc_lookahead=60 / rc=2pass / mbtree=0 / bitrate=4062 / ratetol=1.0 / qcomp=0.60 / qpmin=0 / qpmax=69 / qpstep=4 / cplxblur=20.0 / qblur=0.5 / vbv_maxrate=14000 / vbv_bufsize=14000 / nal_hrd=none / filler=0 / ip_ratio=1.40 / pb_ratio=1.30 / aq=2:1.00
Language : English
Default : Yes
Forced : No
Audio
ID : 2
Format : AC-3
Format/Info : Audio Coding 3
Mode extension : CM (complete main)
Format settings, Endianness : Big
Codec ID : A_AC3
Duration : 2h 18mn
Bit rate mode : Constant
Bit rate : 448 Kbps
Channel(s) : 6 channels
Channel positions : Front: L C R, Side: L R, LFE
Sampling rate : 48.0 KHz
Compression mode : Lossy
Stream size : 443 MiB (10%)
Language : Russian
Default : Yes
Forced : No
Text #1
ID : 3
Format : PGS
Muxing mode : zlib
Codec ID : S_HDMV/PGS
Codec ID/Info : Picture based subtitle format used on BDs/HD-DVDs
Language : Russian
Default : Yes
Forced : No
Text #2
ID : 4
Format : PGS
Muxing mode : zlib
Codec ID : S_HDMV/PGS
Codec ID/Info : Picture based subtitle format used on BDs/HD-DVDs
Language : English
Default : No
Forced : No
Скриншоты

[Профиль] [ЛС]

[VIP]ABDURAXA[VIP]

Пол: Мужской

Стаж: 5 лет 3 месяца

Сообщений: 9176

Создавать темы 13-Мар-2018 09:54 (спустя 5 минут)

[Цитировать]

Дичь какая-то ) 4 тысячи битрейта для 720p даже с натяжкой, а тут к 1080p присобачили )
[Профиль] [ЛС]

spike

Пол: Мужской

Стаж: 10 лет

Сообщений: 3357

Откуда: Душанбе

Создавать темы 13-Мар-2018 09:59 (спустя 4 минуты)

[Цитировать]

Mithas204,
Спасибо большое!!!
[Профиль] [ЛС]

Данила88

Пол: Не указан

Стаж: 1 год 5 месяцев

Сообщений: 77

Создавать темы 13-Мар-2018 11:02 (спустя 1 час 3 минуты)

[Цитировать]

Mithas204 скорость закачки 64кб.с
[Профиль] [ЛС]
Показать сообщения:    
Ответить на тему

Текущее время: 12-Дек 18:35

Часовой пояс: UTC + 3



Вы не можете начинать темы
Вы не можете отвечать на сообщения
Вы не можете редактировать свои сообщения
Вы не можете удалять свои сообщения
Вы не можете голосовать в опросах
Вы не можете прикреплять файлы к сообщениям
Вы не можете скачивать файлы