Михаил Задорнов. Закрыватель Америки (РенТВ) [26.07.2014, Юмор, SATRip]

Ответить на тему
 
Автор Сообщение

kinozaltv ®

Пол: Мужской

Стаж: 4 года 6 месяцев

Сообщений: 224

Откуда: г Чкаловск (Согдийская область)

Создавать темы 07-Фев-2018 06:11

[Цитировать]

Михаил Задорнов. Закрыватель Америки
Дата/Год выпуска: 26.07.2014
Страна: Россия
Жанр: Юмор
Продолжительность: 01:38:51
Перевод: Не требуется
Русские субтитры: нет
Оригинальная аудиодорожка: русский
Режиссер: РенТВ
Телеканал: Россия, РЕН ТВ, ООО "Студия 21"
Описание: В новой программе Михаил Задорнов вновь рассуждает об Америке. Не осуждает ее, а высмеивает примитивное подражание США, свойственное некоторым нашим согражданам...
качество: SATRip
формат: AVI
Видео: 704x528 (1.33:1), 25 fps, XviD build 50 ~1799 kbps avg, 0.19 bit/pixel
Аудио: 48 kHz, MPEG Layer 3, 2 ch, ~128.00 kbps avg
MediaInfo
GeneralComplete name : D:\Torrent\Zakryvatelj.Ameriki.2014.07.26.SATRip.aviFormat : AVIFormat/Info : Audio Video InterleaveFile size : 1.34 GiBDuration : 1h 38mnOverall bit rate : 1 938 KbpsWriting application : VirtualDubMod 1.5.10.3 | www.virtualdub-fr.org || (build 2550/release)Writing library : VirtualDub build 32507/release
VideoID : 0Format : MPEG-4 VisualFormat profile : Advanced Simple@L5Format settings, BVOP : YesFormat settings, QPel : NoFormat settings, GMC : No warppointsFormat settings, Matrix : Default (MPEG)Codec ID : XVIDCodec ID/Hint : XviDDuration : 1h 38mnBit rate : 1 800 KbpsWidth : 704 pixelsHeight : 528 pixelsDisplay aspect ratio : 4:3Frame rate : 25.000 fpsColor space : YUVChroma subsampling : 4:2:0Bit depth : 8 bitsScan type : ProgressiveBits/(Pixel*Frame) : 0.194Stream size : 1.24 GiB (93%)Writing library : XviD 1.2.1 (UTC 2008-12-04)
AudioID : 1Format : MPEG AudioFormat version : Version 1Format profile : Layer 3Mode : Joint stereoMode extension : MS StereoCodec ID : 55Codec ID/Hint : MP3Duration : 1h 38mnBit rate mode : ConstantBit rate : 128 KbpsChannel(s) : 2 channelsSampling rate : 48.0 KHzStream size : 90.5 MiB (7%)Alignment : Aligned on interleavesInterleave, duration : 40 ms (1.00 video frame)Interleave, preload duration : 504 msWriting library : LAME3.99rEncoding settings : -m j -V 4 -q 2 -lowpass 17 -b 128
Скриншоты


Последний раз редактировалось: kinozaltv (2018-02-09 21:00), всего редактировалось 2 раз(а)
[Профиль] [ЛС]

kinozaltv ®

Пол: Мужской

Стаж: 4 года 6 месяцев

Сообщений: 224

Откуда: г Чкаловск (Согдийская область)

Создавать темы 07-Фев-2018 07:07 (спустя 55 минут)

[Цитировать]

ip filter должен стоять на значении НЕТ
[Профиль] [ЛС]

Mithas204

Пол: Мужской

Стаж: 8 лет 8 месяцев

Сообщений: 13714

Откуда: Душанбе, Курган-Тюбе

Создавать темы 07-Фев-2018 14:11 (спустя 7 часов)

[Цитировать]

2355584ip filter должен стоять на значении НЕТ
?!
[Профиль] [ЛС]

refderah

Пол: Не указан

Стаж: 6 месяцев 9 дней

Сообщений: 2

Создавать темы 10-Фев-2018 17:09 (спустя 3 дня)

[Цитировать]

По моему мнению Вы не правы. Я уверен. Давайте обсудим это. Пишите мне в PM, пообщаемся.
---
Я могу много говорить по этому вопросу. fifa 15 2016 2017 скачать торрент, скачать fifa 15 repack торрентом а также сайт ea sports fifa 15 скачать торрент windows 7
[Профиль] [ЛС]
Показать сообщения:    
Ответить на тему

Текущее время: 20-Авг 01:00

Часовой пояс: UTC + 3



Вы не можете начинать темы
Вы не можете отвечать на сообщения
Вы не можете редактировать свои сообщения
Вы не можете удалять свои сообщения
Вы не можете голосовать в опросах
Вы не можете прикреплять файлы к сообщениям
Вы не можете скачивать файлы