Звёздный путь: Дискавери / Star Trek: Discovery [2017] (Сезон 1 , Серия 1- 15 из 15) (Акива Голдсман, Адам Кэйн) [Приключения, фантастика , WEB-DLRip][1080p][BaibaKo+OMSKBIRD+IdeaFilm+SDI Media+NewStudiо+LostFilm+Jaskier+Eng]+[Subs Rus , ENG]

Ответить на тему
 
Автор Сообщение

Nikolai.Baranov ®

Пол: Мужской

Стаж: 1 год 1 месяц

Сообщений: 67

Откуда: КРАСНОГОРСК

Создавать темы 12-Янв-2018 23:43

[Цитировать]

-- --Звёздный путь: Дискавери / Star Trek: Discovery Сезон 1 , Серия 1- 15 из 15-- --Год выпуска: 2017-2018
Выпущено: США , CBS Television Studios, Living Dead Guy Productions, Paramount Television, Roddenberry Entertainment, Secret Hideout
Жанр: Приключения, фантастика
Продолжительность: 00:43:00
Сезон:1
Серия:1- 15
Количество серий в сезоне: 15--Озвучка 1: Профессиональный многоголосый - BaibaKo- Русский
Озвучка 2: Профессиональный многоголосый - OMSKBIRD - Русский
Озвучка 3: Профессиональный многоголосый - IdeaFilm - Русский
Озвучка 4: Профессиональный многоголосый - SDI Media - Русский
Озвучка 5: Профессиональный многоголосый - NewStudiо - Русский
Озвучка 6: Профессиональный многоголосый - LostFilm - Русский
Озвучка 7: Профессиональный многоголосый - Jaskier - Русский
Озвучка 8: Профессиональный многоголосый -Английский - Оригинал
Озвучка 9: Профессиональный многоголосый -Английский - Description - Оригинал
Субтитры: Russian (Forced, Russian) , (Forced, English, English (SDH)
--Официальный сайт
--Режиссеры:
Акива Голдсман, Адам Кэйн, Ли Роуз--В ролях: Джейсон Айзекс, Даг Джонс, Шазад Латиф, Сонекуа Мартин-Грин, Молик Панчоли, Энтони Рэпп, Мишель Йео, Кеннет Митчелл, Дэймон Рунян-- За 10 лет до начала истории, описанной в оригинальном сериале «Звёздный путь», экипаж корабля USS Discovery NCC-1031 отправляется в путешествие, чтобы изучать глубокий космос и открывать новые миры и цивилизации.-- --Качество :WEB-DLRip 1080p
Формат: MKV
Видео кодек: H264
Видео: 10,7Мбит/сек,1920х960(2.00), в 23.976кадр/сек,AVC(NTSC) (Main@L4.1)(CABAC/4 Ref Frames)--Аудио Кодек:AC3
Аудио #1:AC3 , 640 Kbps, 48.0 KHz, 6 ch - -BaibaKo-Русский
Аудио #2:AC3 , 384 Kbps, 48.0 KHz, 6 ch - -OMSKBIRD-Русский
Аудио #3: AC3, 384 Kbps, 48.0 KHz, 6 ch - IdeaFilm-Русский
Аудио #4: AC3, 384 Kbps, 48.0 KHz, 6 ch - SDI Media-Русский
Аудио #5: AC3, 384 Kbps, 48.0 KHz, 6 ch - NewStudiо-Русский
Аудио #6: AC3, 384 Kbps, 48.0 KHz, 6 ch - LostFilm-Русский
Аудио #7: AC3, 384 Kbps, 48.0 KHz, 6 ch - Jaskier-Русский
Аудио #8: AC3, 640 Kbps, 48.0 KHz,6 ch - English-Английский -Оригинал
Аудио #9: AC3, 384 Kbps, 48.0 KHz,6 ch - English-Английский - Description -Оригинал --
Доп. информация:
Звуковая дорожка сделана путем наложения чистого голоса озвучивателей на центральный канал оригинальной дорожки. Качество идентично звуковой дорожке.
--
Список эпизодов сезона

1 сезон 1 серия - Вулканское приветствие - The Vulcan Hello
1 сезон 2 серия - Битва у двойной звезды - Battle at the Binary Stars
1 сезон 3 серия - Короли действуют по ситуации - Context is for Kings
1 сезон 4 серия - Мясницкий нож глух к блеянью ягненка - The Butcher's Knife Cares Not for the Lamb's Cry
1 сезон 5 серия - Выбери свою боль - Choose Your Pain
1 сезон 6 серия - Лета - Lethe
1 сезон 7 серия - Соблазн, ослеплявший порою и мудрых - Magic to Make The Sanest Man Go Mad
1 сезон 8 серия - Хочешь мира - готовься к войне - Si Vis Pacem Para Bellum
1 сезон 9 серия - И войду я в чащу лесную - Into the Forest I Go
1 сезон 10 серия - Вопреки себе - Despite Yourself
1 сезон 11 серия - Внутренний волк - The Wolf Inside
1 сезон 12 серия - Безудержное честолюбие - Vaulting Ambition
1 сезон 13 серия - Все, что случилось с нами, лишь пролог - What's Past Is Prologue
1 сезон 14 серия - Война снаружи и внутри - The War Without, The War Within
1 сезон 15 серия - Возьми меня за руку - Will You Take My Hand?
--
MediaInfo сезона
Общее
Уникальный идентификатор : 199135578124798980131559341052496873626 (0x95D01E06BD6484BD832FA1F6E90A889A)
Полное имя : E:\ПИРАТИЯ(PIRATIYA)\ЗВЁЗДНЫЙ ПУТЬ ДИСКАВЕРИ\Star_Trek_Discovery_2017_S01_7xRus[BaibaKo_OmskBird_IdeaFilm_SDI Media_NewStudiо_LostFilm_Jaskier]_Н264_N.B_HD_1080_Eng\Star_Trek_Discovery_2017_S01Е01_Н264_DD5.1_N.B_WEB-DL_1080_7xRus_Eng.mkv
Формат : Matroska
Версия формата : Version 4 / Version 2
Размер файла : 4,42 Гбайт
Продолжительность : 43 м. 31 с.
Общий поток : 14,5 Мбит/сек
Название фильма : Star Trek Discovery S01E01 @ Nikolai.Baranov & PIRATIYA
Дата кодирования : UTC 2017-10-06 08:05:11
Программа кодирования : mkvmerge v16.0.0 ('Protest') 64-bit
Библиотека кодирования : libebml v1.3.5 + libmatroska v1.4.8
Обложка : Yes
Attachments : cover.jpg
Видео
Идентификатор : 1
Формат : AVC
Формат/Информация : Advanced Video Codec
Профиль формата : Main@L4.1
Настройки формата : CABAC / 4 Ref Frames
Параметр CABAC формата : Да
Параметр RefFrames формата : 4 кадра
Идентификатор кодека : V_MPEG4/ISO/AVC
Продолжительность : 42 м. 51 с.
Битрейт : 10,7 Мбит/сек
Ширина : 1920 пикселей
Высота : 960 пикселей
Соотношение сторон : 2,000
Режим частоты кадров : Постоянный
Частота кадров : 23,976 (24000/1001) кадра/сек
Стандарт вещания : NTSC
Цветовое пространство : YUV
Субдискретизация насыщенности : 4:2:0
Битовая глубина : 8 бит
Тип развёртки : Прогрессивная
Бит/(Пиксели*Кадры) : 0.243
Размер потока : 3,22 Гбайт (73%)
Заголовок : Star_Trek_Discovery_2017_S01Е01_Н264_DD5.1_N.B_WEB-DL_1080_7xRus_Eng
Язык : Russian
Default : Нет
Forced : Нет
Цветовой диапазон : Limited
Основные цвета : BT.709
Характеристики трансфера : BT.709
Коэффициенты матрицы : BT.709
Аудио #1
Идентификатор : 7
Формат : AC-3
Формат/Информация : Audio Coding 3
Параметр Endianness формата : Big
Идентификатор кодека : A_AC3
Продолжительность : 43 м. 30 с.
Вид битрейта : Постоянный
Битрейт : 640 Кбит/сек
Каналы : 6 каналов
Расположение каналов : Front: L C R, Side: L R, LFE
Частота : 48,0 КГц
Частота кадров : 31,250 кадров/сек (1536 SPF)
Битовая глубина : 16 бит
Метод сжатия : С потерями
Размер потока : 199 Мбайт (4%)
Заголовок : MVO BaibaKo @DD5.1 AC3, 640 Kbps, 48.0 KHz, 6 ch
Язык : Russian
ServiceKind/String : Complete Main
Default : Да
Forced : Нет
Аудио #2
Идентификатор : 8
Формат : AC-3
Формат/Информация : Audio Coding 3
Параметр Endianness формата : Big
Идентификатор кодека : A_AC3
Продолжительность : 43 м. 31 с.
Вид битрейта : Постоянный
Битрейт : 384 Кбит/сек
Каналы : 6 каналов
Расположение каналов : Front: L C R, Side: L R, LFE
Частота : 48,0 КГц
Частота кадров : 31,250 кадров/сек (1536 SPF)
Битовая глубина : 16 бит
Метод сжатия : С потерями
Размер потока : 120 Мбайт (3%)
Заголовок : MVO OmskBird @DD5.1 AC3, 384 Kbps, 48.0 KHz, 6 ch
Язык : Russian
ServiceKind/String : Complete Main
Default : Нет
Forced : Нет
Аудио #3
Идентификатор : 9
Формат : AC-3
Формат/Информация : Audio Coding 3
Параметр Endianness формата : Big
Идентификатор кодека : A_AC3
Продолжительность : 42 м. 51 с.
Вид битрейта : Постоянный
Битрейт : 384 Кбит/сек
Каналы : 6 каналов
Расположение каналов : Front: L C R, Side: L R, LFE
Частота : 48,0 КГц
Частота кадров : 31,250 кадров/сек (1536 SPF)
Битовая глубина : 16 бит
Метод сжатия : С потерями
Размер потока : 118 Мбайт (3%)
Заголовок : MVO IdeaFilm @DD5.1 AC3, 384 Kbps, 48.0 KHz, 6 ch
Язык : Russian
ServiceKind/String : Complete Main
Default : Нет
Forced : Нет
Аудио #4
Идентификатор : 10
Формат : AC-3
Формат/Информация : Audio Coding 3
Параметр Endianness формата : Big
Идентификатор кодека : A_AC3
Продолжительность : 43 м. 31 с.
Вид битрейта : Постоянный
Битрейт : 384 Кбит/сек
Каналы : 6 каналов
Расположение каналов : Front: L C R, Side: L R, LFE
Частота : 48,0 КГц
Частота кадров : 31,250 кадров/сек (1536 SPF)
Битовая глубина : 16 бит
Метод сжатия : С потерями
Размер потока : 120 Мбайт (3%)
Заголовок : MVO SDI Media @DD5.1 AC3, 384 Kbps, 48.0 KHz, 6 ch
Язык : Russian
ServiceKind/String : Complete Main
Default : Нет
Forced : Нет
Аудио #5
Идентификатор : 11
Формат : AC-3
Формат/Информация : Audio Coding 3
Параметр Endianness формата : Big
Идентификатор кодека : A_AC3
Продолжительность : 43 м. 31 с.
Вид битрейта : Постоянный
Битрейт : 384 Кбит/сек
Каналы : 6 каналов
Расположение каналов : Front: L C R, Side: L R, LFE
Частота : 48,0 КГц
Частота кадров : 31,250 кадров/сек (1536 SPF)
Битовая глубина : 16 бит
Метод сжатия : С потерями
Размер потока : 120 Мбайт (3%)
Заголовок : MVO NewStudio @DD5.1 AC3, 384 Kbps, 48.0 KHz, 6 ch
Язык : Russian
ServiceKind/String : Complete Main
Default : Нет
Forced : Нет
Аудио #6
Идентификатор : 12
Формат : AC-3
Формат/Информация : Audio Coding 3
Параметр Endianness формата : Big
Идентификатор кодека : A_AC3
Продолжительность : 42 м. 50 с.
Вид битрейта : Постоянный
Битрейт : 640 Кбит/сек
Каналы : 6 каналов
Расположение каналов : Front: L C R, Side: L R, LFE
Частота : 48,0 КГц
Частота кадров : 31,250 кадров/сек (1536 SPF)
Битовая глубина : 16 бит
Метод сжатия : С потерями
Размер потока : 196 Мбайт (4%)
Заголовок : Original@DD5.1 AC3 ,640 Kbps, 48.0 KHz, 6 ch
Язык : English
ServiceKind/String : Complete Main
Default : Нет
Forced : Нет
Аудио #7
Идентификатор : 13
Формат : AC-3
Формат/Информация : Audio Coding 3
Параметр Endianness формата : Big
Идентификатор кодека : A_AC3
Продолжительность : 43 м. 31 с.
Вид битрейта : Постоянный
Битрейт : 384 Кбит/сек
Каналы : 6 каналов
Расположение каналов : Front: L C R, Side: L R, LFE
Частота : 48,0 КГц
Частота кадров : 31,250 кадров/сек (1536 SPF)
Битовая глубина : 16 бит
Метод сжатия : С потерями
Размер потока : 120 Мбайт (3%)
Заголовок : Original - Eng - Description @DD5.1 AC3 ,384 Kbps, 48.0 KHz, 6 ch
Язык : English
ServiceKind/String : Complete Main
Default : Нет
Forced : Нет
Аудио #8
Идентификатор : 14
Формат : AC-3
Формат/Информация : Audio Coding 3
Параметр Endianness формата : Big
Идентификатор кодека : A_AC3
Продолжительность : 43 м. 31 с.
Вид битрейта : Постоянный
Битрейт : 384 Кбит/сек
Каналы : 6 каналов
Расположение каналов : Front: L C R, Side: L R, LFE
Частота : 48,0 КГц
Частота кадров : 31,250 кадров/сек (1536 SPF)
Битовая глубина : 16 бит
Метод сжатия : С потерями
Размер потока : 120 Мбайт (3%)
Заголовок : MVO LostFilm @DD5.1 AC3, 384 Kbps, 48.0 KHz, 6 ch
Язык : Russian
ServiceKind/String : Complete Main
Default : Нет
Forced : Нет
Аудио #9
Идентификатор : 15
Формат : AC-3
Формат/Информация : Audio Coding 3
Параметр Endianness формата : Big
Идентификатор кодека : A_AC3
Продолжительность : 43 м. 31 с.
Вид битрейта : Постоянный
Битрейт : 384 Кбит/сек
Каналы : 6 каналов
Расположение каналов : Front: L C R, Side: L R, LFE
Частота : 48,0 КГц
Частота кадров : 31,250 кадров/сек (1536 SPF)
Битовая глубина : 16 бит
Метод сжатия : С потерями
Размер потока : 120 Мбайт (3%)
Заголовок : MVO Jaskier @DD5.1 AC3, 384 Kbps, 48.0 KHz, 6 ch
Язык : Russian
ServiceKind/String : Complete Main
Default : Нет
Forced : Нет
Текст #1
Идентификатор : 2
Формат : UTF-8
Идентификатор кодека : S_TEXT/UTF8
Идентификатор кодека/Информация : UTF-8 Plain Text
Продолжительность : 42 м. 11 с.
Битрейт : 12 бит/сек
ElementCount : 94
Размер потока : 3,85 Кбайт (0%)
Заголовок : Rus - Forced
Язык : Russian
Default : Да
Forced : Да
Текст #2
Идентификатор : 3
Формат : UTF-8
Идентификатор кодека : S_TEXT/UTF8
Идентификатор кодека/Информация : UTF-8 Plain Text
Продолжительность : 42 м. 8 с.
Битрейт : 132 бит/сек
ElementCount : 653
Размер потока : 40,9 Кбайт (0%)
Заголовок : Rus - Full
Язык : Russian
Default : Нет
Forced : Нет
Текст #3
Идентификатор : 4
Формат : UTF-8
Идентификатор кодека : S_TEXT/UTF8
Идентификатор кодека/Информация : UTF-8 Plain Text
Продолжительность : 29 м. 34 с.
Битрейт : 10 бит/сек
ElementCount : 65
Размер потока : 2,37 Кбайт (0%)
Заголовок : Eng - Forced
Язык : English
Default : Нет
Forced : Нет
Текст #4
Идентификатор : 5
Формат : UTF-8
Идентификатор кодека : S_TEXT/UTF8
Идентификатор кодека/Информация : UTF-8 Plain Text
Продолжительность : 41 м. 51 с.
Битрейт : 79 бит/сек
ElementCount : 828
Размер потока : 24,5 Кбайт (0%)
Заголовок : Original Eng - Full
Язык : English
Default : Нет
Forced : Нет
Текст #5
Идентификатор : 6
Формат : UTF-8
Идентификатор кодека : S_TEXT/UTF8
Идентификатор кодека/Информация : UTF-8 Plain Text
Продолжительность : 41 м. 53 с.
Битрейт : 86 бит/сек
ElementCount : 892
Размер потока : 26,5 Кбайт (0%)
Заголовок : Original - Eng - SDH
Язык : English
Default : Нет
Forced : Нет
Меню
00:00:00.000 : en:Глава 01 / en:Глава 01 / en:Глава 01 / en:Глава 01 / en:Глава 01 / en:Глава 01 / en:Глава 01 / en:Глава 01 / en:Глава 01 / en:Глава 01 / en:Глава 01 / en:Глава 01 / en:Глава 01 / en:Глава 01 / en:Глава 01
--
Скриншоты
-- --
Как закачать отдельный файл
1. Открыть торрент
2. Снять галки с тех файлов торрента, которые мы не хотим закачивать. Оставляем только на нужных нам файлах (файле).
3. Нажать О.К.
В клиенте utorrent
Инструкция
1) Открыть торрент

2) Снять галки с тех файлов торрента, которые мы не хотим закачивать:
* либо вручную, снимая с каждого файла галку( скрин №1)
* либо, нажав кнопку "Снять метки (Select None)", сняв сразу со всех файлов(скрин №2)
№1

№2

Оставляем только на нужных нам файлах (файле).

3)Нажать О.К
-- -- --Внимание!!! 17.02. 2018. РАЗДАЧА ОБНОВЛЕНА. ДОБАВЛЕНА 15 СЕРИЯ. ФИНАЛ СЕЗОНА .ОБНОВИТЕ ТОРЕНТ ФАЙЛ. ПРИЯТНОГО ПРОСМОТРА . --Релиз от: Nikolai.Baranov & PIRATIYA -- -- -- --
[Профиль] [ЛС]
Показать сообщения:    
Ответить на тему

Текущее время: 17-Июл 06:51

Часовой пояс: UTC + 3



Вы не можете начинать темы
Вы не можете отвечать на сообщения
Вы не можете редактировать свои сообщения
Вы не можете удалять свои сообщения
Вы не можете голосовать в опросах
Вы не можете прикреплять файлы к сообщениям
Вы не можете скачивать файлы