Черная книга / Zwartboek / Black Book (Пол Верховен / Paul Verhoeven) [2006, Нидерланды, Германия, Великобритания, Бельгия, драма, военный, BDRip-AVC] Dub + Original

Ответить на тему
 
Автор Сообщение

Mithas204 ®

Пол: Мужской

Стаж: 8 лет 4 месяца

Сообщений: 13534

Откуда: Душанбе, Курган-Тюбе

Создавать темы 12-Янв-2018 22:26

[Цитировать]

Черная книга / Zwartboek / Black Book- Страна: Нидерланды, Германия, Великобритания, Бельгия | AVRO Television, Clockwork Pictures, Egoli Tos
Жанр: драма, военный
Год выпуска: 2006
Продолжительность: 02:25:38
Перевод: Профессиональный (дублированный)
Субтитры: русские, английские
Оригинальная аудиодорожка: немецкий
Режиссер: Пол Верховен / Paul Verhoeven
В ролях: Кэрис Ван Хаутен, Себастьян Кох, Том Хоффман, Халина Рейн, Вальдемар Кобус, Дерек Де Линт, Кристиан Беркель, Питер Блок, Мишель Хайсмэн, Рональд Армбраст, Фрэнк Ламмерс, Джонни Де Мол, Ксандер Страат, Диана Доббельман, Рикст Ледди, Питер Тайденс, Дирк Зиленберг
Описание: Вторая мировая война. Рахиль Штайн - немка еврейского происхождения. Спасаясь от фашистского геноцида, она находит пристанище в Нидерландах, где присоединяется к движению Сопротивления. Рахиль непременно должна найти предателя, по вине которого погибла вся ее семья. Отныне месть - смысл ее жизни… 
Качество видео: BDRip
Формат видео: MKV
Видео: x264, 1008x428 (2.35:1) 23,976 fps, ~2088 kbps, 0,202 bit/pixel
Аудио 1: 48 kHz, AC3 Dolby Digital, 3/2 (L,C,R,l,r) + LFE ch, ~384 kbps [русский]
Аудио 2: 48 kHz, AC3 Dolby Digital, 3/2 (L,C,R,l,r) + LFE ch, ~384 kbps [английский]
Формат субтитров: softsub (SRT)
MediaInfo
General
Unique ID : 214378490214786907325129963177758586881 (0xA147CB9D9CACAEF5B56381F659027801)
Format : Matroska
Format version : Version 4 / Version 2
File size : 2.90 GiB
Duration : 2h 25mn
Overall bit rate : 2 851 Kbps
Encoded date : UTC 2016-12-04 06:16:40
Writing application : mkvmerge v9.6.0 ('Slave To Your Mind') 64bit
Writing library : libebml v1.3.4 + libmatroska v1.4.5
Video #1
ID : 1
Format : AVC
Format/Info : Advanced Video Codec
Format profile : High@L4.1
Format settings, CABAC : Yes
Format settings, ReFrames : 10 frames
Codec ID : V_MPEG4/ISO/AVC
Duration : 2h 25mn
Bit rate : 2 088 Kbps
Width : 1 008 pixels
Height : 428 pixels
Display aspect ratio : 2.35:1
Frame rate mode : Constant
Frame rate : 23.976 (24000/1001) fps
Color space : YUV
Chroma subsampling : 4:2:0
Bit depth : 8 bits
Scan type : Progressive
Bits/(Pixel*Frame) : 0.202
Stream size : 2.12 GiB (73%)
Writing library : x264 core 146 r2538 121396c
Encoding settings : cabac=1 / ref=10 / deblock=1:-3:-2 / analyse=0x3:0x113 / me=umh / subme=10 / psy=1 / psy_rd=1.00:0.00 / mixed_ref=1 / me_range=32 / chroma_me=1 / trellis=2 / 8x8dct=1 / cqm=0 / deadzone=21,11 / fast_pskip=1 / chroma_qp_offset=-2 / threads=6 / lookahead_threads=1 / sliced_threads=0 / nr=0 / decimate=1 / interlaced=0 / bluray_compat=0 / constrained_intra=0 / bframes=12 / b_pyramid=2 / b_adapt=2 / b_bias=0 / direct=1 / weightb=1 / open_gop=0 / weightp=2 / keyint=250 / keyint_min=23 / scenecut=40 / intra_refresh=0 / rc_lookahead=50 / rc=2pass / mbtree=1 / bitrate=2088 / ratetol=1.0 / qcomp=0.60 / qpmin=0 / qpmax=69 / qpstep=4 / cplxblur=20.0 / qblur=0.5 / ip_ratio=1.40 / aq=3:1.00
Language : English
Default : Yes
Forced : No
Audio #2
ID : 2
Format : AC-3
Format/Info : Audio Coding 3
Mode extension : CM (complete main)
Format settings, Endianness : Big
Codec ID : A_AC3
Duration : 2h 25mn
Bit rate mode : Constant
Bit rate : 384 Kbps
Channel(s) : 6 channels
Channel positions : Front: L C R, Side: L R, LFE
Sampling rate : 48.0 KHz
Frame rate : 31.250 fps (1536 spf)
Compression mode : Lossy
Stream size : 400 MiB (13%)
Title : Дублированный
Language : Russian
Default : Yes
Forced : No
Audio #3
ID : 3
Format : AC-3
Format/Info : Audio Coding 3
Mode extension : CM (complete main)
Format settings, Endianness : Big
Codec ID : A_AC3
Duration : 2h 25mn
Bit rate mode : Constant
Bit rate : 384 Kbps
Channel(s) : 6 channels
Channel positions : Front: L C R, Side: L R, LFE
Sampling rate : 48.0 KHz
Frame rate : 31.250 fps (1536 spf)
Compression mode : Lossy
Stream size : 400 MiB (13%)
Language : German
Default : No
Forced : No
Text #4
ID : 4
Format : UTF-8
Codec ID : S_TEXT/UTF8
Codec ID/Info : UTF-8 Plain Text
Duration : 2h 17mn
Bit rate : 70 bps
Count of elements : 1070
Stream size : 71.0 KiB (0%)
Language : Russian
Default : No
Forced : No
Text #5
ID : 5
Format : UTF-8
Codec ID : S_TEXT/UTF8
Codec ID/Info : UTF-8 Plain Text
Duration : 2h 17mn
Bit rate : 40 bps
Count of elements : 1303
Stream size : 40.5 KiB (0%)
Language : English
Default : No
Forced : No
лог
raw [info]: 1008x428p 1:1 @ 24000/1001 fps (cfr)
x264 [info]: using SAR=1/1
x264 [info]: using cpu capabilities: MMX2 SSE2Fast SSSE3 SSE4.2 AVX XOP FMA4 FMA3 LZCNT BMI1
x264 [info]: profile High, level 4.1
x264 [info]: frame I:1737 Avg QP:15.55 size: 76993
x264 [info]: frame P:49481 Avg QP:19.41 size: 23301
x264 [info]: frame B:158302 Avg QP:22.02 size: 6249
x264 [info]: consecutive B-frames: 2.8% 4.1% 9.9% 26.5% 19.2% 28.0% 4.7% 2.0% 0.9% 0.4% 0.3% 0.6% 0.6%
x264 [info]: mb I I16..4: 5.6% 70.0% 24.4%
x264 [info]: mb P I16..4: 0.6% 8.2% 1.9% P16..4: 37.7% 27.6% 16.3% 0.0% 0.0% skip: 7.7%
x264 [info]: mb B I16..4: 0.0% 0.6% 0.2% B16..8: 41.9% 10.9% 3.3% direct: 4.3% skip:38.7% L0:42.6% L1:46.3% BI:11.2%
x264 [info]: 8x8 transform intra:74.1% inter:62.9%
x264 [info]: coded y,uvDC,uvAC intra: 90.1% 83.3% 58.6% inter: 24.0% 15.6% 4.7%
x264 [info]: i16 v,h,dc,p: 41% 13% 7% 39%
x264 [info]: i8 v,h,dc,ddl,ddr,vr,hd,vl,hu: 10% 9% 5% 10% 14% 14% 14% 12% 12%
x264 [info]: i4 v,h,dc,ddl,ddr,vr,hd,vl,hu: 11% 8% 3% 10% 15% 14% 14% 12% 13%
x264 [info]: i8c dc,h,v,p: 41% 21% 19% 18%
x264 [info]: Weighted P-Frames: Y:3.4% UV:1.0%
x264 [info]: ref P L0: 47.5% 12.3% 16.2% 6.0% 5.5% 3.8% 3.4% 1.7% 1.7% 1.6% 0.3% 0.0%
x264 [info]: ref B L0: 74.5% 11.2% 5.4% 2.7% 2.1% 1.9% 1.3% 0.6% 0.3%
x264 [info]: ref B L1: 92.7% 7.3%
x264 [info]: kb/s:2083.56
x264 [total]: encoded 209520 frames, 9.30 fps, 2083.56 kb/s
Скриншоты
[Профиль] [ЛС]
Показать сообщения:    
Ответить на тему

Текущее время: 27-Апр 09:40

Часовой пояс: UTC + 3



Вы не можете начинать темы
Вы не можете отвечать на сообщения
Вы не можете редактировать свои сообщения
Вы не можете удалять свои сообщения
Вы не можете голосовать в опросах
Вы не можете прикреплять файлы к сообщениям
Вы не можете скачивать файлы