Улица / Сезон: 1 / Серии: 1-56 из 60 (Жанна Кадникова, Николай Бурлак, Михаил Соловьёв) [2017, драма, комедия, мелодрама, HDTVRip 720p]

Ответить на тему
 
Автор Сообщение

Mithas204 ®

Пол: Мужской

Стаж: 8 лет 4 месяца

Сообщений: 13534

Откуда: Душанбе, Курган-Тюбе

Создавать темы 12-Дек-2017 02:08

[Цитировать]

Улица«Наше время, наши истории» Год выпуска: 2017
Производство: Good Story Media
Жанр: драма, комедия, мелодрама
Продолжительность: 00:27:00
Субтитры: Отсуствуют
Режиссёр: Жанна Кадникова, Николай Бурлак, Михаил Соловьёв
В ролях: Егор Клинаев, Ольга Баранова, Владимир Хацкевич, Екатерина Седик, Павел Савинков, Сергей Змичеревский, Артемий Падалка, Марина Богатова, Ксения Жданова, Марта Дромашко, Александр Терехов
Описание: «Улица» — это история жителей одной из улиц спального района большого города. Школьники и студенты, домохозяйки и продавцы, олигархи и простые рабочие — здесь встретятся более 30 персонажей разного возраста и социального статуса, у каждого из них своя история. В большой Вселенной «Улицы» нет главных и второстепенных героев, здесь есть бурная жизнь с ее радостями, горестями, казусами и косяками, страхами, любовными переживаниями и трагедиями. Это история про всех нас и наших соседей.
Реклама: Отсутствует

Предыдущие и альтернативные раздачи
Релиз группа: MediaClub
Качество: HDTVRip 720p
Формат: MKV
Видео кодек: H.264
Аудио кодек: AC3
Видео: MPEG-4 AVC, 1280х720, (16:9), 25 fps, 3500 kbps, 0.152 bit/pixel
Аудио: AC3, 48 kHz, 2 ch, 192 kbps
Внимание! Раздача ведётся путём добавления новых серий
Внимание! Раздача ведётся путём добавления новых серий; при каждом добавлении создаётся новый торрент. Чтобы начать докачку новой серии, пользователям необходимо сделать следующее:
(1) остановить скачивание,
(2) удалить старый торрент у себя из клиента (старые серии удалять не надо),
(3) скачать новый торрент и запустить его у себя в клиенте вместо старого, при этом указать клиенту путь в старую папку куда и должно происходить скачивание новых серий.
Ваш клиент при этом должен произвести хеширование (проверку) старой папки (если не производит сам - помогите ему сделать это), и будет докачивать только те серии которых у вас ещё нет. Старые серии при этом не удаляются, а продолжают раздаваться!
Eсли вы уже удалили старые серии, то предотвратить повторную закачку старых серий можно, отжав галочку в соответствующих местах при запуске нового торрента. По возможности, желательно не удалять старые серии как можно дольше чтобы релизёр не столько продолжал раздавать старые серии, а смог сконцентрироваться на новых.
MI
Общее
Уникальный идентификатор : 231414770924591580354097450307934161972 (0xAE18DD1AC4F63DF2939FDFE055730C34)
Полное имя : D:\торрент файлы\Ulica.2017.HDTVRip.720p\Ulica.S01E01.2017.HDTV720p.mkv
Формат : Matroska
Версия формата : Version 4 / Version 2
Размер файла : 719 Мбайт
Продолжительность : 27 м. 12 с.
Общий поток : 3693 Кбит/сек
Дата кодирования : UTC 2017-10-02 19:58:28
Программа кодирования : mkvmerge v7.8.0 ('River Man') 32bit built on Apr 3 2015 12:11:22
Библиотека кодирования : libebml v1.3.1 + libmatroska v1.4.2
Видео
Идентификатор : 1
Формат : AVC
Формат/Информация : Advanced Video Codec
Профиль формата : High@L4.1
Настройки формата : CABAC / 9 Ref Frames
Параметр CABAC формата : Да
Параметр RefFrames формата : 9 кадров
Идентификатор кодека : V_MPEG4/ISO/AVC
Продолжительность : 27 м. 12 с.
Битрейт : 3500 Кбит/сек
Ширина : 1280 пикселей
Высота : 720 пикселей
Соотношение сторон : 16:9
Режим частоты кадров : Постоянный
Частота кадров : 25,000 кадров/сек
Цветовое пространство : YUV
Субдискретизация насыщенности : 4:2:0
Битовая глубина : 8 бит
Тип развёртки : Прогрессивная
Бит/(Пиксели*Кадры) : 0.152
Размер потока : 681 Мбайт (95%)
Библиотека кодирования : x264 core 146 r2538 121396c
Настройки программы : cabac=1 / ref=9 / deblock=1:-3:-3 / analyse=0x3:0x113 / me=umh / subme=11 / psy=1 / psy_rd=1.00:0.20 / mixed_ref=1 / me_range=32 / chroma_me=1 / trellis=2 / 8x8dct=1 / cqm=0 / deadzone=21,11 / fast_pskip=1 / chroma_qp_offset=-3 / threads=6 / lookahead_threads=1 / sliced_threads=0 / nr=0 / decimate=0 / interlaced=0 / bluray_compat=0 / constrained_intra=0 / bframes=11 / b_pyramid=2 / b_adapt=2 / b_bias=0 / direct=3 / weightb=1 / open_gop=0 / weightp=2 / keyint=250 / keyint_min=25 / scenecut=40 / intra_refresh=0 / rc_lookahead=60 / rc=2pass / mbtree=1 / bitrate=3500 / ratetol=1.0 / qcomp=0.60 / qpmin=0 / qpmax=69 / qpstep=4 / cplxblur=20.0 / qblur=0.5 / vbv_maxrate=14000 / vbv_bufsize=14000 / nal_hrd=none / filler=0 / ip_ratio=1.40 / aq=3:1.00
Default : Нет
Forced : Нет
Цветовой диапазон : Limited
Основные цвета : BT.709
Характеристики трансфера : BT.709
Коэффициенты матрицы : BT.709
Аудио
Идентификатор : 2
Формат : AC-3
Формат/Информация : Audio Coding 3
Параметр Endianness формата : Big
Идентификатор кодека : A_AC3
Продолжительность : 27 м. 12 с.
Вид битрейта : Постоянный
Битрейт : 192 Кбит/сек
Каналы : 2 канала
Расположение каналов : Front: L R
Частота : 48,0 КГц
Частота кадров : 31,250 кадров/сек (1536 SPF)
Битовая глубина : 16 бит
Метод сжатия : С потерями
Размер потока : 37,4 Мбайт (5%)
Язык : Russian
ServiceKind/String : Complete Main
Default : Да
Forced : Да
Скриншоты


Последний раз редактировалось: Mithas204 (2018-01-12 09:39), всего редактировалось 1 раз
[Профиль] [ЛС]

andre-fabio

Пол: Мужской

Стаж: 6 лет 7 месяцев

Сообщений: 660

Создавать темы 10-Янв-2018 15:21 (спустя 29 дней)

[Цитировать]

Mithas204, здравствуйте, не могли бы Вы обновить серии ? спасибо
[Профиль] [ЛС]

Mithas204 ®

Пол: Мужской

Стаж: 8 лет 4 месяца

Сообщений: 13534

Откуда: Душанбе, Курган-Тюбе

Создавать темы 10-Янв-2018 15:38 (спустя 17 минут)

[Цитировать]

2353634Mithas204, здравствуйте, не могли бы Вы обновить серии ? спасибо
источник ещё не обновился. Как так сразу. 5 серий осталось до конца сериала. Разом всё залью.
[Профиль] [ЛС]

andre-fabio

Пол: Мужской

Стаж: 6 лет 7 месяцев

Сообщений: 660

Создавать темы 11-Янв-2018 15:24 (спустя 23 часа)

[Цитировать]

2353635источник ещё не обновился. Как так сразу. 5 серий осталось до конца сериала. Разом всё залью.
спасибо
[Профиль] [ЛС]

Mithas204 ®

Пол: Мужской

Стаж: 8 лет 4 месяца

Сообщений: 13534

Откуда: Душанбе, Курган-Тюбе

Создавать темы 12-Янв-2018 09:39 (спустя 18 часов)

[Цитировать]

41 по 56
[Профиль] [ЛС]

kachok

Пол: Мужской

Стаж: 11 месяцев 12 дней

Сообщений: 851

Создавать темы 12-Янв-2018 10:31 (спустя 51 минута)

[Цитировать]

оказывается 60 серия это не конечная серия
[Профиль] [ЛС]
Показать сообщения:    
Ответить на тему

Текущее время: 27-Апр 09:38

Часовой пояс: UTC + 3



Вы не можете начинать темы
Вы не можете отвечать на сообщения
Вы не можете редактировать свои сообщения
Вы не можете удалять свои сообщения
Вы не можете голосовать в опросах
Вы не можете прикреплять файлы к сообщениям
Вы не можете скачивать файлы