Сторожевая застава (2017) WEB-DLRip

Ответить на тему
 
Автор Сообщение

Хохрин ®

Пол: Мужской

Стаж: 5 лет 10 месяцев

Сообщений: 1007

Откуда: СССР

Создавать темы 07-Дек-2017 09:39

[Цитировать]

Сторожевая застава (2017) WEB-DLRip - Производство: Украина, Кинодел
Жанр: Приключения, Фэнтези
Режиссер: Юрий Ковалев
Актеры: Даниил Каменский, Ева Кошевая, Роман Луцкий, Олег Волощенко, Георгий Деревянский, Слава Красовская, Наталия Сумская, Александр Комаров, Ержан Нурымбет, Ерболат Тогузаков
Описание:
По мотивам книги Владимира Рутковского. Солнечное затмение активизирует магический временной портал, и обычный школьник Виктор из XXI века попадает на тысячу лет назад. В юном Алёше, могучем Илье и суровом Добрыне Витя без труда узнает былинных богатырей. Их жизнь проходит в сражении с половцами, которые любой ценой, с помощью и оружия, и чёрной магии, пытаются уничтожить русичей. Витя оказывается в самом центре невероятных событий, вступает в битву с мифическими существами и узнает, что такое настоящая храбрость.
 
Возраст: 6+ (зрителям, достигшим 6 лет)
Дата мировой премьеры: 12 октября 2017
Продолжительность: 01:51:05
Качество видео: WEB-DLRip
Перевод: Дублированный (iTunes)
Субтитры: отсутствуют
Видео: Xvid, 720x304, ~1369 Kbps
Аудио: AC3, 6 ch, 384 Kbps
Mediainfo
Общее
Полное имя : D:\Storozhevaiy.Zastava.2O17.D.WEB-DLRip.NNM-CLUB.avi
Формат : AVI
Формат/Информация : Audio Video Interleave
Размер файла : 1,37 Гбайт
Продолжительность : 1 ч. 51 м.
Общий поток : 1762 Кбит/сек
Название фильма : Storozhevaiy.Zastava.2O17.D.WEB-DLRip.NNM-CLUB
Программа кодирования : VirtualDubMod 1.5.10.2 (build 2540/release)
Формат оригинала/Имя : Movie
Видео
Идентификатор : 0
Формат : MPEG-4 Visual
Профиль формата : Advanced Simple@L5
Параметр BVOP формата : 2
Параметр QPel формата : Нет
Параметр GMC формата : Без точки перехода
Параметр матрицы формата : Default (MPEG)
Идентификатор кодека : XVID
Идентификатор кодека/Подсказка : XviD
Продолжительность : 1 ч. 51 м.
Битрейт : 1369 Кбит/сек
Ширина : 720 пикселей
Высота : 304 пикселя
Соотношение сторон : 2,35:1
Частота кадров : 24,000 кадра/сек
Цветовое пространство : YUV
Субдискретизация насыщенности : 4:2:0
Битовая глубина : 8 бит
Тип развёртки : Прогрессивная
Метод сжатия : С потерями
Бит/(Пиксели*Кадры) : 0.261
Размер потока : 1,06 Гбайт (78%)
Библиотека кодирования : XviD 1.2.1 (UTC 2008-12-04)
Аудио
Идентификатор : 1
Формат : AC-3
Формат/Информация : Audio Coding 3
Расширение режима : CM (complete main)
Параметр Endianness формата : Big
Идентификатор кодека : 2000
Продолжительность : 1 ч. 51 м.
Вид битрейта : Постоянный
Битрейт : 384 Кбит/сек
Каналы : 6 каналов
Расположение каналов : Front: L C R, Side: L R, LFE
Частота : 48,0 КГц
Частота кадров : 31,250 кадров/сек (1536 spf)
Метод сжатия : С потерями
Размер потока : 305 Мбайт (22%)
Выравнивание : Разделение по промежуткам
Продолжительность промежутка : 42 мс. (1,00 видеокадр)
Время предзагрузки промежутка : 500 мс.
Скриншоты:
-
Если вы не можете скачать раздачу:

Если закачка не идет, добавьте в свой торрент следующие адреса пиров 10.154.25.74:61282
-
[Профиль] [ЛС]
Показать сообщения:    
Ответить на тему

Текущее время: 15-Дек 09:36

Часовой пояс: UTC + 3



Вы не можете начинать темы
Вы не можете отвечать на сообщения
Вы не можете редактировать свои сообщения
Вы не можете удалять свои сообщения
Вы не можете голосовать в опросах
Вы не можете прикреплять файлы к сообщениям
Вы не можете скачивать файлы