Крым (Алексей Пиманов) [2017, Россия, драма, боевик, WEB-DL 1080p] iTunes

Ответить на тему
 
Автор Сообщение

Mithas204 ®

Пол: Мужской

Стаж: 7 лет 11 месяцев

Сообщений: 13074

Откуда: Душанбе, Курган-Тюбе

Создавать темы 13-Ноя-2017 11:51

[Цитировать]

Крым
Страна: Россия
Студия: Пиманов и партнеры
Жанр: драма, боевик
Год выпуска: 2017
Продолжительность: 01:36:12
Перевод: Не требуется
Субтитры: нет
Оригинальная аудиодорожка: русский
Режиссер: Алексей Пиманов
В ролях: Роман Курцын, Евгения Лапова, Павел Крайнов, Павел Трубинер, Борис Щербаков, Елена Котельникова, Геннадий Яковлев, Алексей Комашко, Никита Зверев, Игорь Буяновер
Описание: История о любви, вере и чести, о силе духа и настоящей дружбе на фоне реальных событий крымской весны 2014 года. Судьба свела их в Крыму близ древнего города Мангуп-Кале. Это была любовь с первого взгляда… В непростые дни исторических перемен они должны сохранить свою жизнь и любовь.
 
Sample
Тип релиза: WEB-DL 1080p
Контейнер: MKV
Видео: MPEG4 AVC Video, H264, 2.40:1, 1920x804, 25 fps, 4499 kbps
Аудио: Russian (AC3, 6 ch, 384 kbps, 16 bits, 48.0 KHz) - оригинал
MediaInfo
General
Unique ID : 188462372949069896996794259677501599283 (0x8DC88861FEC8CA46B43A407FCEF62E33)
Complete name : D:\Крым 2017 WEB-DL 1080p.mkv
Format : Matroska
Format version : Version 2
File size : 3.35 GiB
Duration : 1h 36mn
Overall bit rate : 4 982 Kbps
Encoded date : UTC 2017-11-12 21:49:50
Writing application : mkvmerge v8.3.0 ('Over the Horizon') 64bit
Writing library : libebml v1.3.1 + libmatroska v1.4.2
DURATION : 01:36:12.352000000
NUMBER_OF_FRAMES : 180386
NUMBER_OF_BYTES : 277072896
_STATISTICS_WRITING_APP : mkvmerge v8.3.0 ('Over the Horizon') 64bit
_STATISTICS_WRITING_DATE_UTC : 2017-11-12 21:49:50
_STATISTICS_TAGS : BPS DURATION NUMBER_OF_FRAMES NUMBER_OF_BYTES
Video
ID : 1
Format : AVC
Format/Info : Advanced Video Codec
Format profile : High@L4.0
Format settings, CABAC : Yes
Format settings, ReFrames : 5 frames
Codec ID : V_MPEG4/ISO/AVC
Duration : 1h 36mn
Bit rate : 4 499 Kbps
Width : 1 920 pixels
Height : 804 pixels
Display aspect ratio : 2.40:1
Frame rate mode : Constant
Frame rate : 25.000 fps
Color space : YUV
Chroma subsampling : 4:2:0
Bit depth : 8 bits
Scan type : Progressive
Bits/(Pixel*Frame) : 0.117
Stream size : 3.02 GiB (90%)
Language : English
Default : Yes
Forced : No
Color primaries : BT.709
Transfer characteristics : BT.709
Matrix coefficients : BT.709
Audio
ID : 2
Format : AC-3
Format/Info : Audio Coding 3
Mode extension : CM (complete main)
Format settings, Endianness : Big
Codec ID : A_AC3
Duration : 1h 36mn
Bit rate mode : Constant
Bit rate : 384 Kbps
Channel count : 6 channels
Channel positions : Front: L C R, Side: L R, LFE
Sampling rate : 48.0 KHz
Bit depth : 16 bits
Compression mode : Lossy
Stream size : 264 MiB (8%)
Language : Russian
Default : Yes
Forced : No
Menu
00:00:00.000 : en:Глава 1
00:07:22.720 : en:Глава 2
00:13:24.440 : en:Глава 3
00:19:32.760 : en:Глава 4
00:24:40.960 : en:Глава 5
00:30:49.600 : en:Глава 6
00:37:24.080 : en:Глава 7
00:44:02.200 : en:Глава 8
00:51:59.640 : en:Глава 9
00:56:57.280 : en:Глава 10
01:03:27.040 : en:Глава 11
01:08:43.960 : en:Глава 12
01:14:59.320 : en:Глава 13
01:19:54.080 : en:Глава 14
01:27:27.280 : en:Глава 15
Скриншоты
[Профиль] [ЛС]

hellboy2014

Пол: Мужской

Стаж: 3 года 4 месяца

Сообщений: 734

Создавать темы 15-Ноя-2017 22:35 (спустя 2 дня 10 часов)

[Цитировать]

говорят:
Фильм вполне не плох раз посмотреть... Рейтинг видимо политический, заниженный с помощью ботов.
[Профиль] [ЛС]
Показать сообщения:    
Ответить на тему

Текущее время: 19-Ноя 11:47

Часовой пояс: UTC + 3



Вы не можете начинать темы
Вы не можете отвечать на сообщения
Вы не можете редактировать свои сообщения
Вы не можете удалять свои сообщения
Вы не можете голосовать в опросах
Вы не можете прикреплять файлы к сообщениям
Вы не можете скачивать файлы