Кунг-фу Панда: Удивительные легенды / Kung Fu Panda: Legends of Awesomeness / Сезон: 1-3 / Серии: 1-79 из 79 (Майкл Маллен, Лэйн Луэрас, Хуан Хосе Меса-Леон) [2011-2014, мультфильм, боевик, комедия, приклю, WEB-DLRip] [MP4, 640x] Dub

Ответить на тему
 
Автор Сообщение

Хохрин ®

Пол: Мужской

Стаж: 5 лет 8 месяцев

Сообщений: 1061

Откуда: СССР

Создавать темы 25-Сен-2017 14:28

[Цитировать]

Кунг-фу Панда: Удивительные легенды / Kung Fu Panda: Legends of Awesomeness Год выпуска: 2011-2014
Страна: США
Жанр: мультфильм, боевик, комедия, приключения, семейный
Продолжительность: по ~ 00:22:00
Перевод: Профессиональный (полное дублирование)
Оригинальная дорожка: Нет
Субтитры: Нет
Режиссер: Майкл Маллен, Лэйн Луэрас, Хуан Хосе Меса-Леон
В ролях:Мик Вингерт, Кари Уолгрен, Фред Татаскьор, Макс Кох, Джеймс Си, Амир Талай, Люси Лью, Джеймс Хонг, Питер Хатингс, Джон Ди Маджио,
Описание: Сериал рассказывает о продолжении приключений Панды По, о том, как он тренируется, защищается, борется, учит и учится, говорит слишком много и выступает в роли нового героя Долины Мира. И теперь, живя вместе с Неистовой Пятеркой, По придется взять на себя много новых обязанностей, ведь он Воин Дракона.
 

1 - 2 сезона
Качество: WEB-DLRip
Формат: MP4
Видео: AVC, 640x360 (16:9), 700 kbps, 23.976 fps
Аудио 1: Русский, AAC, 2 ch, 48 kHz, 128 kbps [MVO NewStudio]
Сезон 3
Качество: WEB-DLRip
Формат: XviD
Видео: 720x400, 23.976 fps, ~ 1023 kbps
Аудио русский: MP3, 2ch., 48000Hz, stereo, 128 kbps
Субтитры: отсутствуют
Список серий
Сезон 1 2011, эпизодов: 26
Эпизод 1 | Жало Скорпиона | Scorpion's Sting
Эпизод 2 | Принцесса и По | The Princess and the Po
Эпизод 3 | Липкое дело | Sticky Situation
Эпизод 4 | Цепная реакция | Chain Reaction
Эпизод 5 | Мозгобой дрожащего пальца | Fluttering Finger Mindslip
Эпизод 6 | Хороший крокодил, плохой крокодил | Good Croc, Bad Croc
Эпизод 7 | Герой родного города | Hometown Hero
Эпизод 8 | Панда за решёткой | Jailhouse Panda
Эпизод 9 | Возвращение совы | Owl Be Back
Эпизод 10 | Плохой По | Bad Po
Эпизод 11 | Загляденье | Sight for Sore Eyes
Эпизод 12 | Месть носорога | Rhino's Revenge
Эпизод 13 | Мастер Пинг | Master Ping
Эпизод 14 | Призрак Угвея | Ghost of Oogway
Эпизод 15 | Кунг-фу малыш | The Kung Fu Kid
Эпизод 16 | Повелительницы теней | Ladies of the Shade
Эпизод 17 | Братишка По | Big Bro Po
Эпизод 18 | Фанаты По | Po Fans Out
Эпизод 19 | День поединка | Challenge Day
Эпизод 20 | Мой любимый Яо | My Favorite Yao
Эпизод 21 | Старики — помощники | In with the Old
Эпизод 22 | Герой из прошлого | Has-Been Hero
Эпизод 23 | Жало любви | Love Stings
Эпизод 24 | Трофей героя | Hall of Lame
Эпизод 25 | Папа-проходимец | Father Crime
Эпизод 26 | Всё дело в Обезьяне | Monkey in the Middle-Сезон 2 2012, эпизодов: 25
Эпизод 1 | Кунг-фу нянька | Kung Fu Day Care
Эпизод 2 | Королевская боль | Royal Pain
Эпизод 3 | По опасней всех | The Most Dangerous Po
Эпизод 4 | По, который закричал «призрак» | The Po Who Cried Ghost
Эпизод 5 | Кунг-туфли | Kung Shoes
Эпизод 6 | Близкие враги | Bosom Enemies
Эпизод 7 | Выход дракона | Enter the Dragon
Эпизод 8 | Мастер и панда | Master and the Panda
Эпизод 9 | Настоящее время | Present Tense
Эпизод 10 | Возвращение Шифу | Shifu's Back
Эпизод 11 | Терра Котта | Terror Cotta
Эпизод 12 | Духовные сферы учителя Диня | The Spirit Orbs of Master Ding
Эпизод 13 | Мальтийский богомол | The Maltese Mantis
Эпизод 14 | по приглашению | Invitation Only
Эпизод 15 | Полуночный странник | The Midnight Stranger
Эпизод 16 | Догнать посыльного | Shoot the Messenger
Эпизод 17 | История о Тигрице | Tigress Tale
Эпизод 18 | Журавль | Crane on a Wire
Эпизод 19 | Тайный музей кунг-фу | The Secret Museum of Kung Fu
Эпизод 20 | Невеста По | Bride of Po
Эпизод 21 | Пятерых достаточно | Five Is Enough
Эпизод 22 | Мама не разрешает мне заниматься кунг-фу | Mama Told Me Not to Kung Fu
Эпизод 23 | Тайный обожатель | Secret Admirer
Эпизод 24 | Чи-Лин | Qilin Time
Эпизод 25 | Гигант | Huge-Сезон 3 2013, эпизодов: 27
01. Бывшая подружка Шифу / Shifu's Ex
02. Лапшичные войны / War of the Noodles
03. Разрыв / The Break Up
04. Mind over manners
05. 1020 вопросов / A Thousand and twenty question
06. Путь креветки / The Way of the Prawn
07. Рот на замке / Mouth Off
08. Зуб змеи / Serpent's Tooth
09. Крёстный гусь / The Goosefather
10. По - дырявый карман / По поднимает кошелёк / Po Picks a Pocket
11. Кроко - мастера Кунг-фу / Ураганный крокодил / Croc you Like a Hurricane
12. Сумасшедшая любовная штучка Линг / Crazy Little Ling Called Love
13. Кунг-фу клуб / Kung Fu Club
14. Игра голода / The Hunger Game
15. Петля во времени / A Stitch in Time
16. Извечный аккорд / Eternal Chord
17. Приемник Яо / Apocalypse Yao
18. Истинный воин дракона / The Real Dragon Warrior
19. Первая пятёрка / The First Five
20. Указ императора, часть 1 / Emperor's Rule, part.1
21. Указ императора, часть 2 / Emperor's Rule, part.2
22. Молодёжь против / Youth in Re-Volt
23. Нашествие долгоносиков / See No Weevil
24. Лицо страха / Face Full of Fear
25. Свирепые и сердитые / Forsaken and Furious
26. Зов природы / Camp Ping
27. Кроко По / Po the Croc
28. Гусинная охота / Goose Chase
Log/MediaInfo / Ep1
Log
x264 [info]: frame I:469 Avg QP:16.41 size: 33061
x264 [info]: frame P:12531 Avg QP:19.72 size: 6877
x264 [info]: frame B:21335 Avg QP:23.65 size: 1109
x264 [total]: encoded 34335 frames, 140.90 fps, 700.23 kb/s
General
Complete name : C:\Users\Vitalik\Videos\Новая папка\Эпизод 1. Жало скорпиона.mp4
Format : MPEG-4
Format profile : Base Media
Codec ID : isom
File size : 142 MiB
Duration : 23mn 52s
Overall bit rate mode : Variable
Overall bit rate : 832 Kbps
Encoded date : UTC 2015-07-23 19:33:26
Tagged date : UTC 2015-07-23 19:33:26
Video
ID : 1
Format : AVC
Format/Info : Advanced Video Codec
Format profile : High@L3.0
Format settings, CABAC : Yes
Format settings, ReFrames : 4 frames
Codec ID : avc1
Codec ID/Info : Advanced Video Coding
Duration : 23mn 52s
Bit rate : 700 Kbps
Maximum bit rate : 3 623 Kbps
Width : 640 pixels
Height : 360 pixels
Display aspect ratio : 16:9
Frame rate mode : Constant
Frame rate : 23.976 fps
Color space : YUV
Chroma subsampling : 4:2:0
Bit depth : 8 bits
Scan type : Progressive
Bits/(Pixel*Frame) : 0.127
Stream size : 120 MiB (84%)
Title : 264@GPAC0.5.2-DEV-rev248-g39d5978-master
Writing library : x264 core 146 r2538 121396c
Encoding settings : cabac=1 / ref=3 / deblock=1:0:0 / analyse=0x3:0x113 / me=hex / subme=7 / psy=1 / psy_rd=1.00:0.00 / mixed_ref=1 / me_range=16 / chroma_me=1 / trellis=1 / 8x8dct=1 / cqm=0 / deadzone=21,11 / fast_pskip=1 / chroma_qp_offset=-2 / threads=6 / lookahead_threads=1 / sliced_threads=0 / nr=0 / decimate=1 / interlaced=0 / bluray_compat=0 / constrained_intra=0 / bframes=3 / b_pyramid=2 / b_adapt=1 / b_bias=0 / direct=1 / weightb=1 / open_gop=0 / weightp=2 / keyint=250 / keyint_min=23 / scenecut=40 / intra_refresh=0 / rc_lookahead=40 / rc=2pass / mbtree=1 / bitrate=700 / ratetol=1.0 / qcomp=0.60 / qpmin=0 / qpmax=69 / qpstep=4 / cplxblur=20.0 / qblur=0.5 / ip_ratio=1.40 / aq=1:1.00
Encoded date : UTC 2015-07-23 19:33:26
Tagged date : UTC 2015-07-23 19:33:28
Audio
ID : 2
Format : AAC
Format/Info : Advanced Audio Codec
Format profile : LC
Codec ID : 40
Duration : 23mn 52s
Bit rate mode : Variable
Bit rate : 128 Kbps
Maximum bit rate : 151 Kbps
Channel(s) : 2 channels
Channel positions : Front: L R
Sampling rate : 48.0 KHz
Compression mode : Lossy
Stream size : 21.8 MiB (15%)
Encoded date : UTC 2015-07-23 19:32:51
Tagged date : UTC 2015-07-23 19:33:28
Скриншоты
[/spoiler-
Если вы не можете скачать раздачу:

Если закачка не идет, добавьте в свой торрент следующие адреса пиров 10.154.25.74:61282
-Благодарность - великая сила! Не забываем применять ее, как в реальной жизни, так и у нас на трекере!Нажав кнопочку "Спасибо", Вы таким образом поощряете релизеров и вдохновляете их на создание новых раздач для всех вас.
[Профиль] [ЛС]

UncleaN

Пол: Мужской

Стаж: 6 лет 10 месяцев

Сообщений: 336

Создавать темы 28-Сен-2017 07:26 (спустя 2 дня 16 часов)

[Цитировать]

Дайте скорости плз.....
[Профиль] [ЛС]

aliev_0007

Пол: Мужской

Стаж: 3 месяца 26 дней

Сообщений: 348

Откуда: Душка

Создавать темы 28-Сен-2017 09:33 (спустя 2 часа 6 минут)

[Цитировать]

Вообще не качает. Есть раздающие?
[Профиль] [ЛС]

aliev_0007

Пол: Мужской

Стаж: 3 месяца 26 дней

Сообщений: 348

Откуда: Душка

Создавать темы 28-Сен-2017 09:34 (спустя 44 секунды)

[Цитировать]

Скорость 234 кб/сек. Скачаю ночью когда все спят. А то всю скорость жрут :D
[Профиль] [ЛС]

aliev_0007

Пол: Мужской

Стаж: 3 месяца 26 дней

Сообщений: 348

Откуда: Душка

Создавать темы 28-Сен-2017 17:15 (спустя 7 часов)

[Цитировать]

Хохрин, сидеров нет ? Мб раздавать будешь ?)
[Профиль] [ЛС]

aliev_0007

Пол: Мужской

Стаж: 3 месяца 26 дней

Сообщений: 348

Откуда: Душка

Создавать темы 28-Сен-2017 18:44 (спустя 1 час 29 минут)

[Цитировать]

2344039Дайте скорости плз.....
У тебя ужасная скорость скачки :D
[Профиль] [ЛС]
Показать сообщения:    
Ответить на тему

Текущее время: 24-Окт 05:06

Часовой пояс: UTC + 3



Вы не можете начинать темы
Вы не можете отвечать на сообщения
Вы не можете редактировать свои сообщения
Вы не можете удалять свои сообщения
Вы не можете голосовать в опросах
Вы не можете прикреплять файлы к сообщениям
Вы не можете скачивать файлы