Орвилл / The Orville [2017] (Сезон 1 , Серия 1- 12 из 12) (Брэннон Брага, Джон Кассар) [Фантастика, драма, комедия , WEB-DLRip][1080p][LostFilm+AlexFilm+NewStudiо+Jaskier+ OMSKBIRD+BaibaKo+Kubik V Kube+Eng]+[Subs ENG]

Ответить на тему
 
Автор Сообщение

Nikolai.Baranov ®

Пол: Мужской

Стаж: 1 год 2 месяца

Сообщений: 72

Откуда: КРАСНОГОРСК

Создавать темы 23-Сен-2017 18:17

[Цитировать]

-- --Орвилл / The Orville Сезон 1 , Серия 1- 12 из 12 -- --Год выпуска: 2017
Выпущено: США , 20th Century Fox Television, Fuzzy Door Productions, Twentieth Century Fox Television
Жанр: Фантастика, драма, комедия
Продолжительность: 00:46:00
Сезон:1
Серия: 1- 12
Количество серий в сезоне : 13--Озвучка 1: Профессиональный многоголосый - LostFilm -Русский
Озвучка 2: Профессиональный многоголосый - AlexFilm- Русский
Озвучка 3: Профессиональный многоголосый - Jaskier- Русский
Озвучка 4: Профессиональный многоголосый - NewStudiо- Русский
Озвучка 5: Профессиональный многоголосый - OMSKBIRD - Русский
Озвучка 6: Профессиональный многоголосый - BaibaKo- Русский
Озвучка 7: Профессиональный многоголосый - Kubik V Kube- Русский
Озвучка 8: Профессиональный многоголосый -Английский - Оригинал
Субтитры: Английские
--Официальный сайт
--Режиссеры:
Брэннон Брага, Джон Кассар, Джеймс Л. Конуэй--В ролях: Сет МакФарлейн, Скотт Граймз, Пенни Джонсон, Питер Макон, Эдрианн Палики, Холстон Сейдж, Ларри Джо Кэмпбелл, Норм МакДональд-- 25 столетие – это время когда, человечеству перестало хватать планеты Земля, как источника еды и ресурсов, необходимых для жизни. К тому же все уголки родной планеты уже давно изучены и хочется чего-то большего – новых открытий, иных рас, необычных изобретений, которые можно будет у них выменять на свои какие-то технические достижения. Поставив за цель, ведущие умы человечества достигают ее. Им удается выйти на связь с другими разумными существами, что обитают во вселенной. Следующий шаг – это построить огромный космический корабль, который поможет покорить космические просторы и изучить все воочию. Проект получает название Орвилл и отдается под руководство молодого капитана Мерсера, у которого сейчас в жизни не самый простой период. Он разлучается с супругой, но не смотря на это не упивается горем, а старается наоборот переключиться на что-то иное и космическое путешествие подходит для этого как нельзя лучше.-- --Качество :WEB-DLRip 1080p
Формат: MKV
Видео кодек: H264
Видео: 11,3Мбит/сек,1920х1080(16.9), в 23.976кадр/сек,AVC (High@L4)(CABAC/4 Ref Frames)--Аудио Кодек:AC3
Аудио #1:AC3 , 640 Kbps, 48.0 KHz, 6 ch- -LostFilm-Русский
Аудио #2:AC3 , 384 Kbps, 48.0 KHz, 6 ch- -AlexFilm-Русский
Аудио #3: AC3, 384 Kbps, 48.0 KHz, 6 ch - NewStudiо-Русский
Аудио #4: AC3, 384 Kbps, 48.0 KHz, 6 ch - Jaskier-Русский
Аудио #5: AC3, 384 Kbps, 48.0 KHz, 6 ch - OMSKBIRD-Русский
Аудио #6: AC3, 384 Kbps, 48.0 KHz, 6 ch - BaibaKo-Русский
Аудио #7: AC3, 384 Kbps, 48.0 KHz, 6 ch - Kubik V Kube-Русский
Аудио #8: AC3, 640 Kbps, 48.0 KHz,6 ch - - English-Английский -Оригинал--
Доп. информация:
Звуковая дорожка сделана путем наложения чистого голоса озвучивателей на центральный канал оригинальной дорожки. Качество идентично звуковой дорожке.
--
Список эпизодов сезона

1 сезон 1 серия - Старые раны - Old Wounds
1 сезон 2 серия - Командная игра - Command Performance
1 сезон 3 серия - Из чего только сделаны девочки - About a Girl
1 сезон 4 серия - Если звезды зажигают... - If the Stars Should Appear
1 сезон 5 серия - Прия - Pria
1 сезон 6 серия - Криллы - Krill
1 сезон 7 серия - Миллионы мух не могут ошибаться - Majority Rule
1 сезон 8 серия - Прямо в щель - Into the Fold
1 сезон 9 серия - Кинжал Купидона - Cupid's Dagger
1 сезон 10 серия - Огненный Шторм - Firestorm
1 сезон 11 серия - Новые измерения - New Dimensions
1 сезон 12 серия - Безумное поклонение - Mad Idolatry
--
MediaInfo сезона
Общее
Уникальный идентификатор : 221003020417573875043571620276141194054 (0xA643A22BE4160A3FB932FC6C217A7B46)
Полное имя : E:\ПИРАТИЯ(PIRATIYA)\ОРВИЛЛ ( The Orville )\THE_ORVILLE_2017_S01_7xRus[LostFilm_AlexFilm_Jaskier_NewStudiо_OMSKBIRD_BaibaKo_Kubik V Kube]_N.B_HD_11080p_Eng\The_Orville_2017_S01E01_Н264_DD5.1_N.B_WEB-DL_1080p_7xRus_Eng.mkv
Формат : Matroska
Версия формата : Version 4 / Version 2
Размер файла : 4,70 Гбайт
Продолжительность : 45 м. 40 с.
Режим общего битрейта : Переменный
Общий поток : 14,7 Мбит/сек
Название фильма : The Orville S01E01 @ Nikolai.Baranov & PIRATIYA
Дата кодирования : UTC 2017-09-22 10:22:54
Программа кодирования : mkvmerge v15.0.0 ('Duel with the Devil') 64-bit
Библиотека кодирования : libebml v1.3.5 + libmatroska v1.4.5
Видео
Идентификатор : 1
Формат : AVC
Формат/Информация : Advanced Video Codec
Профиль формата : High@L4
Настройки формата : CABAC / 4 Ref Frames
Параметр CABAC формата : Да
Параметр RefFrames формата : 4 кадра
Идентификатор кодека : V_MPEG4/ISO/AVC
Продолжительность : 45 м. 2 с.
Вид битрейта : Переменный
Битрейт : 11,3 Мбит/сек
Максимальный битрейт : 15,0 Мбит/сек
Ширина : 1920 пикселей
Высота : 1080 пикселей
Соотношение сторон : 16:9
Режим частоты кадров : Постоянный
Частота кадров : 23,976 (24000/1001) кадра/сек
Цветовое пространство : YUV
Субдискретизация насыщенности : 4:2:0
Битовая глубина : 8 бит
Тип развёртки : Прогрессивная
Бит/(Пиксели*Кадры) : 0.228
Размер потока : 3,57 Гбайт (76%)
Заголовок : The_Orville_2017_S01E01_Н264_DD5.1_N.B_WEB-DL_1080p_7xRus_Eng
Язык : Russian
Default : Нет
Forced : Нет
Цветовой диапазон : Limited
Основные цвета : BT.709
Характеристики трансфера : BT.709
Коэффициенты матрицы : BT.709
Аудио #1
Идентификатор : 3
Формат : AC-3
Формат/Информация : Audio Coding 3
Параметр Endianness формата : Big
Идентификатор кодека : A_AC3
Продолжительность : 45 м. 2 с.
Вид битрейта : Постоянный
Битрейт : 640 Кбит/сек
Каналы : 6 каналов
Расположение каналов : Front: L C R, Side: L R, LFE
Частота : 48,0 КГц
Частота кадров : 31,250 кадров/сек (1536 SPF)
Битовая глубина : 16 бит
Метод сжатия : С потерями
Размер потока : 206 Мбайт (4%)
Заголовок : MVO LostFilm @DD5.1 AC3, 640 Kbps, 48.0 KHz, 6 ch
Язык : Russian
ServiceKind/String : Complete Main
Default : Да
Forced : Нет
Аудио #2
Идентификатор : 4
Формат : AC-3
Формат/Информация : Audio Coding 3
Параметр Endianness формата : Big
Идентификатор кодека : A_AC3
Продолжительность : 45 м. 3 с.
Вид битрейта : Постоянный
Битрейт : 384 Кбит/сек
Каналы : 6 каналов
Расположение каналов : Front: L C R, Side: L R, LFE
Частота : 48,0 КГц
Частота кадров : 31,250 кадров/сек (1536 SPF)
Битовая глубина : 16 бит
Метод сжатия : С потерями
Размер потока : 124 Мбайт (3%)
Заголовок : MVO AlexFilm @DD5.1 AC3, 384 Kbps, 48.0 KHz, 6 ch
Язык : Russian
ServiceKind/String : Complete Main
Default : Нет
Forced : Нет
Аудио #3
Идентификатор : 5
Формат : AC-3
Формат/Информация : Audio Coding 3
Параметр Endianness формата : Big
Идентификатор кодека : A_AC3
Продолжительность : 45 м. 40 с.
Вид битрейта : Постоянный
Битрейт : 384 Кбит/сек
Каналы : 6 каналов
Расположение каналов : Front: L C R, Side: L R, LFE
Частота : 48,0 КГц
Частота кадров : 31,250 кадров/сек (1536 SPF)
Битовая глубина : 16 бит
Метод сжатия : С потерями
Размер потока : 125 Мбайт (3%)
Заголовок : MVO Jaskier @DD5.1 AC3, 384 Kbps, 48.0 KHz, 6 ch
Язык : Russian
ServiceKind/String : Complete Main
Default : Нет
Forced : Нет
Аудио #4
Идентификатор : 6
Формат : AC-3
Формат/Информация : Audio Coding 3
Параметр Endianness формата : Big
Идентификатор кодека : A_AC3
Продолжительность : 45 м. 40 с.
Вид битрейта : Постоянный
Битрейт : 384 Кбит/сек
Каналы : 6 каналов
Расположение каналов : Front: L C R, Side: L R, LFE
Частота : 48,0 КГц
Частота кадров : 31,250 кадров/сек (1536 SPF)
Битовая глубина : 16 бит
Метод сжатия : С потерями
Размер потока : 125 Мбайт (3%)
Заголовок : MVO NewStudio @DD5.1 AC3, 384 Kbps, 48.0 KHz, 6 ch
Язык : Russian
ServiceKind/String : Complete Main
Default : Нет
Forced : Нет
Аудио #5
Идентификатор : 7
Формат : AC-3
Формат/Информация : Audio Coding 3
Параметр Endianness формата : Big
Идентификатор кодека : A_AC3
Продолжительность : 45 м. 40 с.
Вид битрейта : Постоянный
Битрейт : 384 Кбит/сек
Каналы : 6 каналов
Расположение каналов : Front: L C R, Side: L R, LFE
Частота : 48,0 КГц
Частота кадров : 31,250 кадров/сек (1536 SPF)
Битовая глубина : 16 бит
Метод сжатия : С потерями
Размер потока : 125 Мбайт (3%)
Заголовок : MVO OMSKBIRD @DD5.1 AC3, 384 Kbps, 48.0 KHz, 6 ch
Язык : Russian
ServiceKind/String : Complete Main
Default : Нет
Forced : Нет
Аудио #6
Идентификатор : 8
Формат : AC-3
Формат/Информация : Audio Coding 3
Параметр Endianness формата : Big
Идентификатор кодека : A_AC3
Продолжительность : 45 м. 2 с.
Вид битрейта : Постоянный
Битрейт : 384 Кбит/сек
Каналы : 6 каналов
Расположение каналов : Front: L C R, Side: L R, LFE
Частота : 48,0 КГц
Частота кадров : 31,250 кадров/сек (1536 SPF)
Битовая глубина : 16 бит
Метод сжатия : С потерями
Размер потока : 124 Мбайт (3%)
Заголовок : MVO BaibaKo @DD5.1 AC3, 384 Kbps, 48.0 KHz, 6 ch
Язык : Russian
ServiceKind/String : Complete Main
Default : Нет
Forced : Нет
Аудио #7
Идентификатор : 9
Формат : AC-3
Формат/Информация : Audio Coding 3
Параметр Endianness формата : Big
Идентификатор кодека : A_AC3
Продолжительность : 45 м. 3 с.
Вид битрейта : Постоянный
Битрейт : 384 Кбит/сек
Каналы : 6 каналов
Расположение каналов : Front: L C R, Side: L R, LFE
Частота : 48,0 КГц
Частота кадров : 31,250 кадров/сек (1536 SPF)
Битовая глубина : 16 бит
Метод сжатия : С потерями
Размер потока : 124 Мбайт (3%)
Заголовок : MVO Kubik V Kube @DD5.1 AC3, 384 Kbps, 48.0 KHz, 6 ch
Язык : Russian
ServiceKind/String : Complete Main
Default : Нет
Forced : Нет
Аудио #8
Идентификатор : 10
Формат : AC-3
Формат/Информация : Audio Coding 3
Параметр Endianness формата : Big
Идентификатор кодека : A_AC3
Продолжительность : 45 м. 2 с.
Вид битрейта : Постоянный
Битрейт : 640 Кбит/сек
Каналы : 6 каналов
Расположение каналов : Front: L C R, Side: L R, LFE
Частота : 48,0 КГц
Частота кадров : 31,250 кадров/сек (1536 SPF)
Битовая глубина : 16 бит
Метод сжатия : С потерями
Размер потока : 206 Мбайт (4%)
Заголовок : Original@DD5.1 AC3 ,640 Kbps, 48.0 KHz, 6 ch
Язык : English
ServiceKind/String : Complete Main
Default : Нет
Forced : Нет
Текст
Идентификатор : 2
Формат : UTF-8
Идентификатор кодека : S_TEXT/UTF8
Идентификатор кодека/Информация : UTF-8 Plain Text
Продолжительность : 44 м. 14 с.
Битрейт : 92 бит/сек
ElementCount : 947
Размер потока : 29,8 Кбайт (0%)
Заголовок : Original
Язык : English
Default : Нет
Forced : Нет
Меню
00:00:00.000 : en:Глава 01 / en:Глава 01 / en:Глава 01 / en:Глава 01 / en:Глава 01 / en:Глава 01 / en:Глава 01 / en:Глава 01 / en:Глава 01 / en:Глава 01
--
Скриншоты
-- --
Как закачать отдельный файл
1. Открыть торрент
2. Снять галки с тех файлов торрента, которые мы не хотим закачивать. Оставляем только на нужных нам файлах (файле).
3. Нажать О.К.
В клиенте utorrent
Инструкция
1) Открыть торрент

2) Снять галки с тех файлов торрента, которые мы не хотим закачивать:
* либо вручную, снимая с каждого файла галку( скрин №1)
* либо, нажав кнопку "Снять метки (Select None)", сняв сразу со всех файлов(скрин №2)
№1

№2

Оставляем только на нужных нам файлах (файле).

3)Нажать О.К
-- -- --Внимание!!! 05.12. 2017. РАЗДАЧА ОБНОВЛЕНА. ДОБАВЛЕНА 12 СЕРИЯ ФИНАЛ СЕЗОНА. ОБНОВИТЕ ТОРЕНТ ФАЙЛ. ПРИЯТНОГО ПРОСМОТРА . --Релиз от: Nikolai.Baranov & PIRATIYA -- -- -- --
[Профиль] [ЛС]
Показать сообщения:    
Ответить на тему

Текущее время: 15-Авг 10:51

Часовой пояс: UTC + 3



Вы не можете начинать темы
Вы не можете отвечать на сообщения
Вы не можете редактировать свои сообщения
Вы не можете удалять свои сообщения
Вы не можете голосовать в опросах
Вы не можете прикреплять файлы к сообщениям
Вы не можете скачивать файлы