Пираты Карибского моря: Мертвецы не рассказывают сказки / Pirates of the Caribbean: Dead Men Tell No Tales (2017) BDRip-AVC от New-Team | Лицензия

Ответить на тему
 
Автор Сообщение

Zibak ®

Пол: Мужской

Стаж: 9 лет 2 месяца

Сообщений: 31654

Откуда: Aden

Создавать темы 13-Сен-2017 05:49

[Цитировать]

-
Наша группа ВКонтакте
Присоединяйтесь!
-Пираты Карибского моря: Мертвецы не рассказывают сказки
Pirates of the Caribbean: Dead Men Tell No Tales


Страна: США
Жанр: фэнтези, боевик, комедия, приключения
Год выпуска: 2017
Продолжительность: 02:09:07
Перевод: Профессиональный (полное дублирование) [Blu-ray EUR]
Субтитры: русские (форсированные)
Оригинальная аудиодорожка: нет
Режиссер: Хоаким Роннинг / Joachim Roenning, Эспен Сандберг / Espen Sandberg
В ролях: Джонни Депп, Хавьер Бардем, Джеффри Раш, Брентон Туэйтс, Кая Скоделарио, Кевин МакНэлли, Голшифте Фарахани, Дэвид Уэнэм,Стивен Грэм, Энгус Барнетт
Описание:
Исчерпавший свою удачу капитан Джек Воробей обнаруживает, что за ним охотится его старый неприятель, ужасный капитан Салазар и его призрачные пираты. Они только что сбежали из Дьявольского треугольника и намерены уничтожить всех пиратов, включая Джека. Поможет спастись лишь могущественный артефакт — трезубец Посейдона, который дарует своему обладателю полный контроль над морями.

Релиз:
Автор рипа: stalkerok
Сэмпл
Качество видео: BDRip-AVC [Pirates.of.the.Caribbean.Dead.Men.Tell.No.Tales.2017.COMPLETE.BLURAY-PCH]
Формат видео: MKV
Видео кодек: AVC
Аудио кодек: AC3
Видео: 1490 Кбит/сек, 768*320 (2,40:1), в 23,976 (24000/1001) кадра/сек, AVC
Аудио: русский, 192 Кбит/сек, 48 КГц, 16 бит, 2.0, AC3
Навигация по главам: есть

x264/MediaInfo
x264 [info]: frame I:1581 Avg QP:18.08 size: 36624
x264 [info]: frame P:43746 Avg QP:19.80 size: 14588
x264 [info]: frame B:140420 Avg QP:22.41 size: 5317
Общее
Уникальный идентификатор : 198148226128068325191481104527471048066 (0x9511F5D0804F667FA50D64C9947A7582)
Полное имя : M:!Rips2017Pirates of the Caribbean 2017Pirates.of.the.Caribbean.Dead.Men.Tell.No.Tales.2017.BDRip-AVC.RUS.stalkerok.new-team.mkv
Формат : Matroska
Версия формата : Version 4 / Version 2
Размер файла : 1,52 Гбайт
Продолжительность : 2 ч. 9 м.
Общий поток : 1683 Кбит/сек
Название фильма : Pirates of the Caribbean: Dead Men Tell No Tales (2017) (Rip by stalkerok)
Дата кодирования : UTC 2017-09-13 00:12:46
Программа кодирования : mkvmerge v8.6.1 ('Flying') 64bit
Библиотека кодирования : libebml v1.3.3 + libmatroska v1.4.4
Видео
Идентификатор : 1
Формат : AVC
Формат/Информация : Advanced Video Codec
Профиль формата : High@L4.1
Параметр CABAC формата : Да
Параметр ReFrames формата : 14 кадров
Идентификатор кодека : V_MPEG4/ISO/AVC
Продолжительность : 2 ч. 9 м.
Битрейт : 1490 Кбит/сек
Ширина : 768 пикселей
Высота : 320 пикселей
Соотношение сторон : 2,40:1
Режим частоты кадров : Постоянный
Частота кадров : 23,976 (24000/1001) кадра/сек
Цветовое пространство : YUV
Субдискретизация насыщенности : 4:2:0
Битовая глубина : 8 бит
Тип развёртки : Прогрессивная
Бит/(Пиксели*Кадры) : 0.253
Размер потока : 1,34 Гбайт (88%)
Заголовок : Pirates of the Caribbean: Dead Men Tell No Tales (2017) (Rip by stalkerok)
Библиотека кодирования : x264 core 150 r2833kMod df79067
Настройки программы : cabac=1 / ref=14 / deblock=1:-3:-2 / analyse=0x3:0x133 / me=umh / subme=11 / psy=1 / fade_compensate=0.00 / psy_rd=1.00:0.00 / mixed_ref=1 / me_range=32 / chroma_me=1 / trellis=2 / 8x8dct=1 / cqm=0 / deadzone=21,11 / fast_pskip=0 / chroma_qp_offset=-2 / threads=10 / lookahead_threads=2 / sliced_threads=0 / nr=0 / decimate=1 / interlaced=0 / bluray_compat=0 / constrained_intra=0 / bframes=14 / b_pyramid=2 / b_adapt=2 / b_bias=0 / direct=3 / weightb=1 / open_gop=0 / weightp=2 / keyint=240 / keyint_min=23 / scenecut=40 / intra_refresh=0 / rc_lookahead=60 / rc=crf / mbtree=0 / crf=18.7000 / qcomp=0.65 / qpmin=0 / qpmax=69 / qpstep=4 / vbv_maxrate=50000 / vbv_bufsize=62500 / crf_max=0.0 / nal_hrd=none / filler=0 / ip_ratio=1.35 / pb_ratio=1.25 / aq=3:0.93
Default : Да
Forced : Нет
Аудио
Идентификатор : 2
Формат : AC-3
Формат/Информация : Audio Coding 3
Расширение режима : CM (complete main)
Параметр Endianness формата : Big
Идентификатор кодека : A_AC3
Продолжительность : 2 ч. 9 м.
Вид битрейта : Постоянный
Битрейт : 192 Кбит/сек
Каналы : 2 канала
Расположение каналов : Front: L R
Частота : 48,0 КГц
Частота кадров : 31,250 кадров/сек (1536 spf)
Метод сжатия : С потерями
Размер потока : 177 Мбайт (11%)
Язык : Russian
Default : Да
Forced : Нет
Текст
Идентификатор : 3
Формат : UTF-8
Идентификатор кодека : S_TEXT/UTF8
Идентификатор кодека/Информация : UTF-8 Plain Text
Продолжительность : 1 ч. 59 м.
Битрейт : 0 бит/сек
Count of elements : 16
Размер потока : 789 байт (0%)
Заголовок : forced
Язык : Russian
Default : Да
Forced : Нет
Меню
00:00:00.000 : en:Chapter 1
00:05:49.515 : en:Chapter 2
00:08:34.222 : en:Chapter 3
00:13:40.820 : en:Chapter 4
00:16:29.154 : en:Chapter 5
00:22:33.852 : en:Chapter 6
00:25:19.267 : en:Chapter 7
00:28:06.101 : en:Chapter 8
00:31:41.774 : en:Chapter 9
00:33:44.814 : en:Chapter 10
00:37:02.053 : en:Chapter 11
00:42:27.711 : en:Chapter 12
00:49:09.071 : en:Chapter 13
00:54:00.278 : en:Chapter 14
00:57:19.394 : en:Chapter 15
01:00:38.718 : en:Chapter 16
01:08:29.939 : en:Chapter 17
01:11:57.021 : en:Chapter 18
01:16:50.939 : en:Chapter 19
01:19:27.471 : en:Chapter 20
01:25:04.808 : en:Chapter 21
01:27:42.173 : en:Chapter 22
01:31:43.789 : en:Chapter 23
01:38:22.813 : en:Chapter 24
01:42:36.775 : en:Chapter 25
01:47:23.562 : en:Chapter 26
01:52:58.688 : en:Chapter 27
01:59:09.934 : en:Chapter 28

[Профиль] [ЛС]
Показать сообщения:    
Ответить на тему

Текущее время: 25-Сен 16:28

Часовой пояс: UTC + 3



Вы не можете начинать темы
Вы не можете отвечать на сообщения
Вы не можете редактировать свои сообщения
Вы не можете удалять свои сообщения
Вы не можете голосовать в опросах
Вы не можете прикреплять файлы к сообщениям
Вы не можете скачивать файлы