Трансформеры: Последний рыцарь / Transformers: The Last Knight (2017) HDTVRip 1080p] [Line]

Ответить на тему
 
Автор Сообщение

Mithas204 ®

Пол: Мужской

Стаж: 7 лет 9 месяцев

Сообщений: 13015

Откуда: Душанбе, Курган-Тюбе

Создавать темы 10-Сен-2017 21:17

[Цитировать]

Трансформеры: Последний рыцарь / Transformers: The Last Knight- Производство: США, Paramount Pictures
Жанр: Фантастика, Боевик
Режиссер: Майкл Бэй
Продюсер: Майкл Бэй, Йен Брайс, Мэттью Кохан
Актеры: Марк Уолберг, Энтони Хопкинс, Лора Хэддок, Изабела Монер, Джош Дюамель, Джон Гудмен, Стэнли Туччи, Джон Туртурро, Жан Дюжарден, Кен Ватанабе, Гил Бирмингем, Сантьяго Кабрера, Джон Ди Маджио, Питер Каллен, Митч Пиледжи, Стивен Хоган
Описание:
После битвы в Гонконге Оптимус Прайм сталкивается с новой угрозой, с которой он не может бороться в одиночку. Таким образом, он должен искать новых союзников, чтобы спасти Землю и Вселенную. В то время как Оптимус покидает Землю, Бамблби, Хаунд, Дрифт, Кроссхейз, Трейлбрекер, Блёр и Диноботы пытаются помешать Гальватрону построить космический мост, чтобы он не смог принести на Землю большую опасность. В то же время люди возобновляют создание Трансформеров, чтобы помочь Автоботам. 
Возраст: 12+ (зрителям, достигшим 16 лет)
Рейтинг MPAA: PG-13 (детям до 13 лет просмотр нежелателен)
Дата мировой премьеры: 21 июня 2017
Дата российской премьеры: 22 июня 2017, «Централ Партнершип»
Продолжительность: 02:27:17
Качество видео: HDTVRip 1080p
Перевод: Дублированный (Line)
Субтитры: Корейские (вшитые неотключаемые)
Реклама: Присутствуют аудио и текстовые вставки рекламы
Видео: AVC/H.264, 1920x976, 4933 kbps, 23.976 fps
Аудио: 48 kHz, AC3 Dolby Digital, 2/0 (L,R) ch, ~384 kbps
MediaInfo:
Видео
Идентификатор : 1
Формат : AVC
Формат/Информация : Advanced Video Codec
Профиль формата : High@L4.1
Параметр CABAC формата : Да
Параметр ReFrames формата : 4 кадра
Идентификатор кодека : V_MPEG4/ISO/AVC
Продолжительность : 2 ч. 27 м.
Вид битрейта : Переменный
Битрейт : 4933 Кбит/сек
Максимальный битрейт : 5500 Кбит/сек
Ширина : 1920 пикселей
Высота : 976 пикселей
Соотношение сторон : 1,967
Режим частоты кадров : Постоянный
Частота кадров : 23,976 (24000/1001) кадра/сек
Стандарт вещания : Component
Цветовое пространство : YUV
Субдискретизация насыщенности : 4:2:0
Битовая глубина : 8 бит
Тип развёртки : Прогрессивная
Бит/(Пиксели*Кадры) : 0.110
Размер потока : 5,08 Гбайт (93%)
Язык : English
Default : Да
Forced : Нет
Цветовой диапазон : Limited
Основные цвета : BT.709
Характеристики трансфера : BT.709
Коэффициенты матрицы : BT.709
Аудио
Идентификатор : 2
Формат : AC-3
Формат/Информация : Audio Coding 3
Расширение режима : CM (complete main)
Параметр Endianness формата : Big
Идентификатор кодека : A_AC3
Продолжительность : 2 ч. 27 м.
Вид битрейта : Постоянный
Битрейт : 384 Кбит/сек
Каналы : 2 канала
Расположение каналов : Front: L R
Частота : 48,0 КГц
Частота кадров : 31,250 кадров/сек (1536 spf)
Метод сжатия : С потерями
Задержка видео : 17 мс.
Размер потока : 405 Мбайт (7%)
Язык : Russian
Default : Да
Forced : Нет
Скриншоты
[Профиль] [ЛС]

farchikjanee

Пол: Мужской

Стаж: 3 года

Сообщений: 326

Создавать темы 11-Сен-2017 21:10 (спустя 23 часа)

[Цитировать]

слишком слабо у меня качает(( дайте скорости
[Профиль] [ЛС]

Mithas204 ®

Пол: Мужской

Стаж: 7 лет 9 месяцев

Сообщений: 13015

Откуда: Душанбе, Курган-Тюбе

Создавать темы 17-Сен-2017 10:30 (спустя 5 дней)

[Цитировать]

Трансформеры: Последний рыцарь / Transformers: The Last Knight (2017) BDRip 1080p от ExKinoRay | iTunes
[Профиль] [ЛС]

Создавать темы 17-Сен-2017 10:31 (спустя 22 секунды)

Топик был перенесен из форума HDTV в форум Архив
Mithas204
 
Показать сообщения:    
Ответить на тему

Текущее время: 25-Сен 16:23

Часовой пояс: UTC + 3



Вы не можете начинать темы
Вы не можете отвечать на сообщения
Вы не можете редактировать свои сообщения
Вы не можете удалять свои сообщения
Вы не можете голосовать в опросах
Вы не можете прикреплять файлы к сообщениям
Вы не можете скачивать файлы